<?xml version="1.0" standalone="no"?>
<!DOCTYPE svg PUBLIC "-//W3C//DTD SVG 1.1//EN" "http://www.w3.org/Graphics/SVG/1.1/DTD/svg11.dtd" >
<svg xmlns="http://www.w3.org/2000/svg">
<metadata>
This is a custom SVG webfont generated by Font Squirrel.
Copyright   : Copyright c 2010 Kimberly Geswein kimberlygesweincom
Designer    : Kimberly Geswein
Foundry     : Kimberly Geswein
</metadata>
<defs>
<font id="webfontRPduMdrp" horiz-adv-x="388" >
<font-face units-per-em="2048" ascent="1638" descent="-410" />
<missing-glyph horiz-adv-x="1024" />
<glyph unicode=" "  horiz-adv-x="1024" />
<glyph unicode="&#x09;" horiz-adv-x="1024" />
<glyph unicode="&#xa0;" horiz-adv-x="1024" />
<glyph unicode="!" horiz-adv-x="346" d="M158 168q20 0 46 -1t50 -7t40 -19t16 -37q-16 -54 -50 -83t-71 -36t-69 5t-44 37t5 62t77 79zM276 2252q-6 -24 -9 -101t-4 -188t-1 -247t-1 -278t-3 -281t-6 -255t-11 -201t-19 -119h-168q0 206 9 413t19 414t19 415t9 418z" />
<glyph unicode="&#x22;" horiz-adv-x="606" d="M368 1554q0 32 -2 83t4 105t25 100t59 66l44 -40v-498l40 -84q-4 -4 -15 -11t-24 -13t-26 -11t-19 -5q-26 0 -43 22t-26 56t-13 73t-5 73t0 58t1 26zM138 1536q0 32 -2 83t4 105t24 100t60 66l42 -40v-498l42 -84q-4 -4 -16 -11l-25 -14q-13 -7 -25 -12t-18 -5 q-28 0 -44 22t-26 56t-14 73t-4 74t1 59t1 26z" />
<glyph unicode="#" horiz-adv-x="1632" d="M216 848q0 32 17 47t43 21t56 4t58 -7t49 -10t27 -5v222q-16 0 -57 5t-87 12l-88 14q-42 7 -58 11q-34 18 -36 41t36 43q16 4 58 10l88 13q46 7 87 12t57 5v290q0 18 10 27t23 13t27 5t24 1t24 -1t27 -5t22 -13t9 -27v-274l250 26v332h126l82 -332h440q0 -54 -28 -83 t-70 -41t-95 -11t-101 7t-88 13t-58 7v-256q74 0 146 7l144 14l144 14q72 7 148 7v-52q0 -26 -39 -44t-98 -30t-130 -19l-136 -13q-65 -6 -114 -10t-65 -8q-4 -80 -8 -138t-23 -95t-60 -55t-117 -18v248q-134 10 -190 -5t-67 -45t5 -67t24 -71t-9 -59t-95 -29h-22 q-16 0 -20 2q-4 100 -28 160t-57 93t-69 45t-67 17t-51 10t-20 25zM848 1206q-20 0 -56 -4t-72 -10t-62 -14t-26 -16v-264q56 0 108 1t93 18t66 54t25 109q0 42 -3 67t-11 38t-23 17t-39 4z" />
<glyph unicode="$" horiz-adv-x="1426" d="M638 484q8 -20 -28 -30t-83 -14t-89 -3t-48 1q-6 2 -11 18t-9 36t-8 38t-8 22q10 20 52 32t91 20t94 11t61 7v332h-58q-50 0 -120 4t-148 16t-144 35t-110 61t-44 94q-14 68 9 126t68 107t107 87t127 66t126 46t105 24v580h122l84 -498h498v-104l-454 -64l-2 -476h566 q8 -108 -21 -183t-79 -127t-114 -85t-125 -59t-112 -50t-75 -56q2 -24 9 -83t13 -125t12 -124t10 -82v-26q0 -24 -30 -37t-69 -20t-77 -9t-54 -2zM1194 932q-18 26 -62 34t-98 3t-107 -19t-85 -28l16 -216q34 10 91 29t111 47t94 66t40 84zM228 1180q0 -50 31 -72t75 -29 t92 -4t80 3h29h44q23 0 43 1t30 1l-42 372q0 4 -19 7t-31 3q-48 0 -106 -25t-108 -66t-84 -91t-34 -100z" />
<glyph unicode="&#x26;" horiz-adv-x="1716" d="M262 0q-18 -2 -64 9t-91 31t-75 48t-14 60l454 724q-54 90 -88 157t-53 128t-27 125t-8 146q8 134 56 242t114 180t140 105t134 17t97 -83t30 -195t-70 -321t-201 -459q0 -34 34 -83t86 -101t113 -104t118 -92t103 -66t64 -26q80 46 130 83t84 70t59 65l55 70 q30 38 71 85t109 109q4 0 18 -6t29 -15t27 -18t12 -13q-6 -8 -26 -46t-73 -102t-146 -153t-245 -199l192 -98l100 -54q32 -18 38 -23t6 -7q0 -24 -11 -38t-27 -21t-35 -9t-37 -2q-54 0 -99 21t-88 46t-87 46t-96 21l-172 -89q-94 -49 -198 -90t-216 -65t-226 -10zM552 748 q-28 -30 -75 -91t-97 -135t-94 -151t-67 -138t-16 -96t59 -25q104 0 193 14t172 41t166 69t175 96zM414 1390q0 -52 5 -97t16 -87t30 -83t47 -85q64 36 108 118t71 179t39 194t12 163q0 30 2 55t-4 43t-22 28t-52 10q-70 0 -118 -47t-78 -114t-43 -143t-13 -134z" />
<glyph unicode="'" horiz-adv-x="414" d="M208 1536q54 18 80 4t31 -51t-6 -88t-31 -106t-45 -106t-49 -85l-120 -8z" />
<glyph unicode="(" horiz-adv-x="762" d="M38 902q0 52 12 133t33 180t52 207t71 213t86 200t99 167t111 115t120 43q28 0 50 -5t32 -37l-179 -263q-83 -127 -146 -261t-99 -280t-36 -318q0 -126 40 -242t87 -227t87 -220t40 -223q0 -18 -10 -27t-24 -14t-28 -6t-22 -1q-70 0 -125 54t-96 137t-71 185t-48 198 t-27 175t-9 117z" />
<glyph unicode=")" horiz-adv-x="900" d="M278 40q42 106 106 197l124 182q60 91 103 189t43 220q0 200 -47 350t-126 273t-185 231l-226 226q0 2 -2 16t-2 24q0 56 29 73t81 17q112 0 204 -65t164 -169t125 -235t87 -263t51 -253t17 -205q0 -52 -16 -136t-47 -178t-75 -189t-100 -172t-123 -125t-143 -48 q-10 0 -26 15t-16 25z" />
<glyph unicode="*" horiz-adv-x="1300" d="M562 656q-44 -38 -84 -94t-82 -109t-92 -91t-116 -38q-10 0 -26 16t-16 26l59 109l72 139q37 74 69 150t50 142q0 2 1 10t1 12q0 36 -26 62t-64 49t-80 46t-75 55t-49 75t0 105q62 -2 108 -18t82 -37t66 -45t60 -41t64 -25t78 2l206 538q8 20 24 31t36 16t41 6t39 1 q0 -78 -12 -149t-27 -142t-27 -143t-12 -150q66 0 125 13t118 30t118 30t123 13q0 -80 -38 -124t-94 -70t-122 -43t-122 -42t-94 -67t-38 -118q0 -52 14 -102t30 -100t30 -100t14 -102q0 -44 -36 -61t-90 -39q-50 24 -70 77t-34 110t-33 110t-69 77z" />
<glyph unicode="+" horiz-adv-x="1342" d="M610 124q-4 54 -10 123t-15 143t-24 146t-35 130q-52 0 -103 -13t-102 -28t-104 -29t-109 -16q-30 0 -56 14t-26 52q0 30 37 45t93 23t120 12t120 10t93 18t37 36v414q0 18 10 27t24 14t29 6t23 1q44 0 57 -15t23 -73q4 -18 11 -66l14 -101q7 -53 12 -100l7 -65h548 q0 -38 -33 -61t-86 -35t-116 -15t-124 -4t-112 -3t-77 -8q-10 -60 -2 -134t20 -151t21 -154t1 -143q-12 -10 -38 -21t-53 -16t-48 2t-27 35z" />
<glyph unicode="," horiz-adv-x="456" d="M120 216q16 32 35 37t47 5q18 0 36 -5t32 -16t19 -27t-3 -38q-14 -32 -36 -71l-47 -80l-50 -79l-43 -66q-6 -10 -23 -28t-41 -34t-51 -24t-51 2z" />
<glyph unicode="-" horiz-adv-x="794" d="M74 604q0 34 29 47t59 17q114 16 223 35t227 31q50 0 85 -17t46 -40t-3 -48t-60 -39l-480 -50q-16 0 -38 2t-41 9t-33 19t-14 34z" />
<glyph unicode="." horiz-adv-x="360" d="M114 -2q-50 6 -56 35t11 61t50 56t61 16q52 0 71 -22t19 -62q0 -30 -15 -47t-38 -25t-51 -10t-52 -2z" />
<glyph unicode="/" horiz-adv-x="1164" d="M52 104q4 16 49 92l117 189l163 254l186 286l186 284l165 250l121 182q47 71 55 81q20 -12 4 -78t-60 -171t-111 -238t-148 -277t-171 -289t-180 -274t-175 -232t-155 -163q-18 0 -28 13t-14 31t-4 35v25z" />
<glyph unicode="0" horiz-adv-x="1616" d="M96 476q6 102 33 221t73 237t111 227t151 193t192 134t234 50q168 0 290 -65t202 -171t118 -243t38 -283q0 -190 -63 -335t-177 -244t-271 -150t-345 -51q-92 0 -198 28t-195 86t-145 149t-48 217zM242 458q0 -106 42 -172t111 -103t154 -50t173 -13q344 0 518 178 t174 504q6 304 -146 465t-440 145q-82 14 -157 -37t-140 -139t-118 -201t-91 -223t-59 -205t-21 -149z" />
<glyph unicode="1" horiz-adv-x="328" d="M110 1330q-4 56 21 71t59 15q28 0 52 -6t34 -40l-42 -1284q-2 -24 -23 -42t-47 -25t-53 -2t-41 23q2 48 5 150l7 229l8 267l8 267l7 228q3 101 5 149z" />
<glyph unicode="2" horiz-adv-x="1466" d="M96 124q84 74 188 187t202 240t176 256t109 239t3 187t-142 101q-72 0 -127 -21t-100 -53t-84 -70t-81 -70t-90 -53t-110 -21q2 82 67 160t160 138t207 93t211 23t169 -70t82 -186q0 -138 -47 -274t-120 -264t-164 -244l-177 -216q116 -10 233 22t231 74t227 79t225 37 q30 0 57 -14t27 -52t-26 -64t-66 -42t-87 -23t-89 -11t-73 -4t-37 -2q-22 -4 -79 -21l-134 -39q-77 -22 -166 -45t-178 -41t-169 -28t-136 -6t-83 27t-9 71z" />
<glyph unicode="3" horiz-adv-x="1302" d="M370 62q142 36 258 95t200 129t134 142t59 132t-24 101t-116 47t-218 -29t-327 -127l-88 112l120 58q72 34 152 76l161 88q81 46 149 92t115 90t58 80t-21 63t-120 41q-110 0 -214 -23t-207 -50t-206 -49t-209 -22q0 14 1 34t6 41t16 38t33 25l223 55q117 29 234 53 t227 37t200 7t153 -37t87 -93q0 -66 -38 -128t-92 -118t-113 -105t-101 -87q164 -2 252 -42t114 -102t1 -141t-85 -159t-146 -155t-181 -131t-191 -85t-174 -17q-28 0 -55 14t-27 50z" />
<glyph unicode="4" horiz-adv-x="1742" d="M942 488h-181q-77 0 -150 1t-150 1h-181q-16 0 -33 2t-32 8t-24 18t-9 34l196 258l185 245q89 115 169 205t148 136t121 39t89 -85t51 -236t7 -416l552 8q0 -10 -2 -31t-8 -42t-14 -37t-20 -18l-464 -38q-18 -48 -28 -118t-16 -147t-8 -153t-2 -138q-16 0 -48 -7t-65 -12 t-60 -1t-33 28zM942 1204q-54 -74 -133 -145l-154 -142q-75 -71 -135 -144t-76 -151q120 -2 243 13t255 29v540z" />
<glyph unicode="5" horiz-adv-x="1812" d="M312 80q0 52 39 96t91 44v-44q60 0 136 2t155 13t154 33t133 62t94 101t36 151q0 86 -45 137t-111 76t-143 32t-143 7q-70 0 -134 -20t-127 -44t-126 -44t-129 -20h-39q-21 0 -40 5t-32 17t-13 38q0 4 1 14t1 12q4 28 10 86l14 132l17 155l18 155q9 74 15 133t10 87 q10 32 32 37t50 5q48 0 64 -18t17 -47t-6 -64t-7 -67q176 0 350 37t346 82t344 83t348 38q26 0 48 -6t32 -40q-8 -30 -34 -51t-84 -40t-158 -41l-258 -55l-384 -81l-534 -118v-320q82 8 184 24t209 26t210 6t187 -37t139 -101t67 -186q0 -106 -40 -188t-107 -145t-156 -106 t-186 -71t-196 -40t-189 -12q-70 0 -100 14t-30 66z" />
<glyph unicode="6" horiz-adv-x="1606" d="M54 732q0 98 33 206t91 211t137 196t172 164t195 112t206 41q36 0 60 -13t20 -73q-150 -28 -279 -110t-224 -201t-149 -264t-54 -297q0 -38 18 -108t49 -138t73 -119t90 -51q40 32 92 85l116 113q64 60 139 122t159 112t177 81t193 33q44 0 78 -21t57 -55t35 -76t12 -82 q-22 -160 -98 -277t-186 -193t-244 -111t-271 -27t-264 58t-225 142t-155 227t-53 313zM1302 668q-50 0 -112 -28t-125 -72t-126 -99t-118 -108t-98 -99l-67 -72q92 -16 214 1t234 67t193 131t89 193q0 86 -84 86z" />
<glyph unicode="7" horiz-adv-x="1576" d="M1140 1196q-134 0 -267 -8l-266 -16q-133 -8 -267 -12t-270 4q-26 12 -35 25t-9 35t9 36t35 26q176 -6 349 13t344 45t341 49t340 23q40 0 62 -23t18 -63q-112 -124 -222 -275t-191 -318t-120 -344t-7 -353l-208 -40q0 8 -2 29t-3 44t-2 43t-1 30q-4 100 18 199t59 194 t82 185l87 173q42 83 76 158t50 141z" />
<glyph unicode="8" horiz-adv-x="1660" d="M56 372q0 64 39 124t87 115t87 105t39 92q0 30 -14 54t-31 46t-31 47t-14 59q0 90 40 161t106 125t151 92t173 62t173 35t151 11q68 0 148 -3t149 -25t115 -71t46 -139q-2 -82 -41 -148t-87 -118q68 -28 116 -55t78 -63t44 -88t14 -126q0 -114 -41 -207t-110 -167 t-160 -129t-193 -91t-208 -54t-204 -18q-60 0 -129 7t-138 23t-133 44t-113 70t-79 98t-30 132zM258 400q0 -94 49 -150t122 -85t158 -37t159 -8q130 0 254 34t220 103t154 172t58 241q-30 100 -125 148t-222 53t-268 -30t-261 -98t-204 -151t-94 -192zM424 1064 q0 -74 48 -113t124 -39q44 -4 114 8t150 35t161 54t150 67t116 73t59 73q0 44 -20 78t-64 34q-50 24 -128 37t-167 11t-181 -20t-168 -56t-129 -98t-65 -144z" />
<glyph unicode="9" horiz-adv-x="1458" d="M618 0q-32 6 -56 38t-24 78q92 56 189 123t177 152t135 192t65 245q-84 4 -173 -8t-177 -27t-175 -27t-170 -5t-158 37t-141 98q-48 66 -29 145t84 157t162 148t203 118t207 68t175 -2q156 -48 247 -138t129 -205t30 -246t-52 -262t-115 -252t-158 -214t-184 -151 t-191 -62zM310 966q80 -36 179 -46t202 -1t207 35t198 64q16 66 8 127t-39 110t-84 81t-127 36q-100 0 -198 -20t-175 -67t-124 -125t-47 -194z" />
<glyph unicode=":" horiz-adv-x="428" d="M192 316q0 38 34 72t72 34q48 0 69 -28t20 -60t-23 -58t-64 -24q-16 0 -34 3t-35 10t-28 20t-11 31zM112 794q-32 10 -35 31t12 42t39 37t46 18q78 -10 104 -46t13 -66t-61 -42t-118 26z" />
<glyph unicode=";" horiz-adv-x="318" d="M-56 -416l89 297l62 200l39 122q14 43 22 63t10 23t4 3q40 0 55 -26t15 -58q0 -76 -9 -167t-39 -179t-89 -163t-159 -115zM66 806q4 48 31 70t58 22t57 -23t28 -67q0 -18 -10 -40t-36 -22q-14 0 -35 2t-42 8t-36 18t-15 32z" />
<glyph unicode="&#x3c;" horiz-adv-x="1218" d="M210 572l187 148l218 172l213 161q102 75 174 115q18 -2 30 -18t19 -38t6 -45t-9 -37l-588 -448l107 -51l155 -75l179 -92q93 -50 177 -106q-4 -4 -11 -21t-16 -36l-17 -36q-8 -17 -12 -17q-48 30 -119 58l-153 58l-167 63q-85 33 -159 70t-131 80t-83 95z" />
<glyph unicode="=" horiz-adv-x="1260" d="M176 434q0 10 16 26t26 16l175 27q75 11 138 18l120 13q57 6 118 14t131 20t162 30q58 0 75 -37t7 -89q-142 0 -250 -20t-209 -43t-207 -42t-242 -19q-30 0 -45 18t-15 68zM210 808q2 4 42 9t102 12l141 16l162 18q83 9 164 19t147 20q40 12 61 0t25 -36t-7 -51t-35 -43 l-728 -98q-12 0 -31 -1t-39 2t-35 12t-19 31z" />
<glyph unicode="&#x3e;" horiz-adv-x="1208" d="M294 120q-84 32 -110 67t-11 71t63 74t112 78l136 81q72 41 135 82t109 84t58 85l-662 248l126 122q82 -58 155 -92t140 -54t131 -33t128 -30t128 -46t134 -79q-64 -78 -163 -157l-208 -161l-215 -167q-106 -85 -186 -173z" />
<glyph unicode="?" horiz-adv-x="1294" d="M606 84q0 86 88 86q36 10 59 -2t35 -34t12 -51t-12 -51t-36 -34t-58 -2q-88 0 -88 88zM318 852q44 26 119 66l160 89q85 49 173 105t158 114t113 115t38 108t-65 95t-196 76q-90 0 -176 -13t-171 -30t-170 -30t-171 -13q-14 0 -30 11t-31 27t-27 37t-16 39q192 62 371 85 t330 12t267 -52t180 -106t69 -150t-62 -183t-216 -206t-395 -218l288 -82v-58q-22 -2 -77 -5t-123 -2t-138 8t-122 26t-77 51t-3 84z" />
<glyph unicode="@" horiz-adv-x="2670" d="M68 518q0 162 46 313t129 283t196 241t248 187t286 121t309 43q148 0 302 -35t280 -112t206 -198t80 -291q0 -80 -35 -138t-92 -95t-129 -53t-147 -13t-145 25t-122 60q-152 -128 -270 -179t-202 -47t-131 52t-53 117t29 148t116 146t208 110t303 41q72 6 109 -12t56 -51 t28 -73t25 -74t45 -58t89 -24q38 0 72 8t61 25t43 45t16 68q-12 106 -80 193t-167 150t-216 100t-225 47q-210 0 -403 -76t-340 -213t-234 -325t-87 -410q30 -90 87 -157t128 -114t152 -78t161 -50t152 -29t128 -16q210 18 401 42t365 76t331 143t301 241q16 8 37 7t41 -9 t34 -23t16 -35q-2 -84 -63 -155t-163 -130t-232 -105t-270 -81t-278 -57t-255 -34t-201 -12t-116 10q-82 0 -185 7t-209 28t-208 57t-182 93t-128 140t-48 195zM1436 1050q-8 40 -53 48t-105 -6t-126 -46t-116 -73t-75 -88t-5 -89q20 -26 88 -18t146 44t149 94t97 134z" />
<glyph unicode="A" horiz-adv-x="1640" d="M208 34q-8 -10 -33 -8t-51 12t-45 23q-16 11 -16 19q0 22 11.5 53t29.5 68t23 51l96 257l112 301l112 301l95 256l62 169q16 46 22 85t19 67t40 43t85 15q72 -42 120 -99t84 -124t63 -141l54 -148q27 -74 58 -146t77 -134q16 -24 47 -32t68 -9h19q28 0 57 2q17 1 32 1 q21 0 39 -2q32 -4 53 -17t21 -45q3 -14 3 -26q0 -23 -11 -36q-16 -20 -45 -27q-25 -6 -57 -6h-9q-37 1 -68 3t-51 1t-16 -13l53 -164q29 -90 65 -180t78 -174t92 -144q-10 -12 -36 -35t-53 -44t-50 -35q-16 -10 -23 -10q-3 0 -4 2l-352 744l-682 -168l-27 -105 q-17 -65 -40 -138t-53 -144t-68 -119zM748 1456q-12 -90 -45 -187t-74 -192l-83 -184l-74 -163q72 0 144 15t140 38t132 49l122 48q-6 28 -18 77t-29 106t-38 119t-48 116t-59 96t-70 62z" />
<glyph unicode="B" horiz-adv-x="1820" d="M162 40q-6 160 -15 330t-14 355q-4 132 -4 274q0 57 1 115q2 204 18 432q-28 0 -50 6t-22 48q0 30 23 45t63 15q148 32 309 39q49 2 97 2q110 0 215 -11q151 -16 282 -52t219 -88t122 -118q15 -30 15 -62q0 -39 -22 -81q-41 -77 -169 -162t-364 -173q308 -16 500 -61 t290 -108t111 -138q3 -16 3 -32q0 -60 -39 -122q-49 -79 -152 -157t-238 -144t-291 -116t-314 -74q-122 -19 -239 -19q-34 0 -68 2q-149 7 -267 55zM388 164q404 24 661 98t376 165q106 81 106 162q0 10 -2 20q-15 91 -156 148t-404 63h-38q-252 0 -603 -72zM610 1538h-52 q-42 0 -90 -3t-90 -12t-50 -27l-26 -504q62 0 154 13t193 37t201 58t179 74t129 86t50 94q0 46 -36 77t-92 52t-125 32t-136 16t-123 6t-86 1z" />
<glyph unicode="C" horiz-adv-x="1812" d="M54 624q0 206 74 394t203 331t304 228t379 85q82 0 137 -9t89 -38t49 -83t15 -144q-116 116 -243 145q-58 13 -114 13q-68 0 -134 -19q-121 -35 -228 -124t-184 -208t-116 -258q-29 -102 -29 -202q0 -36 4 -71q0 -126 45 -221t122 -157t181 -93t222 -31q148 12 260 50 t205 92t178 117t179 123q18 0 37 -2t35 -8t26 -19t10 -37q-100 -88 -216 -176t-245 -157t-270 -110q-128 -37 -263 -37h-26q-132 0 -256 45t-220 128t-153 198t-57 255z" />
<glyph unicode="D" horiz-adv-x="1660" d="M96 1594h34q26 0 53 -5t50 -17t29 -36q54 18 140 34t190 23q73 5 151 5q34 0 68 -1q115 -3 227 -22t213 -57t178 -100t122 -150t45 -210q2 -20 2 -40q0 -90 -37 -177q-45 -107 -129 -207t-198 -190t-241 -164t-260 -131t-253 -90t-221 -41q-25 -2 -48 -2q-68 0 -115 18 v1560zM1428 1038q-14 122 -82 203t-168 128t-221 64q-98 14 -195 14q-23 0 -46 -1q-120 -4 -228 -25t-182 -51v-1192q82 0 197 34t240 94t248 143t220 178t157 200t60 211z" />
<glyph unicode="E" horiz-adv-x="1514" d="M86 1596q52 -14 143 -17q55 -2 116 -2q41 0 84 1q109 2 228 6t226 4t195 -7t138 -25v-124q-68 -10 -186 -12t-252 -3t-268 -8t-234 -29q-18 -82 -26 -137t-11 -96q-2 -31 -2 -59v-18q1 -36 4 -77t6 -95t3 -132q128 0 249 13t240 30t239 30t246 13v-136l-956 -120l14 -410 q188 0 340 11t289 23l271 23q134 11 284 11q0 -22 -12 -53t-32 -56t-45 -38t-49 5q-138 -16 -305 -31l-338 -30l-330 -28l-279 -23z" />
<glyph unicode="F" horiz-adv-x="1772" d="M236 416q-90 12 -119 32q-21 14 -21 33q0 7 3 15q11 28 51 64l88 82q0 108 -20 212t-45 207t-45 206t-20 209q0 64 26 86t90 22q36 0 51 -13t20 -33t6 -43t7 -43t24 -33t56 -13q168 2 335 28l334 53q167 27 334 45q94 10 189 10q74 0 150 -6q2 -48 10 -83q7 -31 7 -53 q0 -28 -17 -36q-8 -4 -24 -4t-40 4q-50 -2 -133 -5t-184 -8t-214 -12t-223 -17t-210 -24t-176 -33t-122 -42t-46 -53q0 -14 2 -54t6 -90t11 -105t16 -100t21 -75t26 -30q142 0 288 24t293 54t293 54t290 24q4 0 3 -18t-3 -41t-3 -42t3 -19q-62 -34 -166 -58t-226 -41 t-249 -31t-235 -31t-186 -39t-100 -54l-28 -490q-16 -16 -37 -21q-18 -4 -36 -4h-8q-23 1 -48 3t-49 2v428z" />
<glyph unicode="G" horiz-adv-x="1772" d="M1240 336l-156 -109q-84 -59 -175 -109t-186 -83t-191 -33t-183 39t-153 105t-104 153t-38 183q8 132 43 270t94 266t143 240t191 195t237 130q125 45 270 45h12q26 0 58 1h9q27 0 50 -5q27 -6 44 -25t13 -59q-202 -10 -376 -93t-303 -221t-203 -324t-74 -400 q0 -84 27 -148t74 -106t113 -64t144 -22q38 0 100 15t133 41t143 62t131 79t96 90t37 95v370h-11q-25 0 -67 -6q-52 -8 -117 -20t-135 -27l-135 -29l-118 -25q-53 -11 -81 -15q-14 6 -31 15t-19 26t21 45t89 72q4 2 54 11t127 21l171 27l187 29l176 26l137 20q26 -4 63 2 q28 4 54 4h17q34 -2 56 -19q19 -14 19 -54q0 -7 -1 -15l-208 -84q-18 -60 -28 -141t-14 -173t-4 -190t1 -193l2 -183q1 -88 1 -160q-14 -8 -48 -19t-71 -16q-17 -2 -32 -2q-19 0 -36 3q-31 6 -39 34v458z" />
<glyph unicode="H" horiz-adv-x="1550" d="M140 664q-36 6 -62 18t-26 42q0 26 19 52t42 53t43 58t24 67l6 81l9 125q5 70 9 147l8 147l7 125q3 55 3 81q14 16 37 37t48 33t47 9t34 -37l-16 -788q8 2 56 2t118 1t155 5t165 13t146 23t102 38v790q6 16 29 25t53 13t59 4t45 -2q0 -46 3 -144l7 -220q4 -122 9 -258 t9 -258t8 -220l6 -144q8 -132 34 -257t90 -241q-52 -18 -107 -31t-141 -13q-70 174 -95 370t-29 378q-104 2 -188 3h-24q-72 0 -140 -5q-80 -6 -165 -25t-189 -55q-8 -85 -8 -174q0 -63 4 -128q10 -156 44 -320l-198 -100z" />
<glyph unicode="I" d="M96 40q-14 30 -20 105t-9 176q-2 61 -2 128q0 45 1 93q2 120 5 241t7 234t9 200t7 140t2 55q30 18 53 30t53 12q18 0 39 -8t21 -34v-1372q0 -26 -21 -34t-39 -8q-30 0 -53 12t-53 30z" />
<glyph unicode="J" horiz-adv-x="1356" d="M22 456q0 30 15 61t38 58t51 44t56 17q2 -94 37 -166t95 -124t137 -85t162 -50t172 -20q20 -1 40 -1q65 0 125 8q44 22 69 92t37 171t15 223q2 73 2 147q0 49 -1 99l-4 240q-1 77 -1 143v63q1 90 10 145t31 55h168q0 -30 5 -104t9 -176t7 -225q1 -46 1 -93q0 -78 -3 -158 q-5 -128 -17 -252t-39 -230t-68 -184t-103 -114q-58 -32 -153 -39q-30 -2 -62 -2q-68 0 -143 10q-110 15 -225 52t-212 93t-165 132t-86 170z" />
<glyph unicode="K" horiz-adv-x="1550" d="M110 58q10 30 17 112t11 198t7 256t7 284t9 283t15 253t24 193t36 105q6 24 29 36t51 17t54 5h36q-2 -34 -5 -93t-7 -131t-9 -151l-10 -152l-9 -135q-4 -62 -6 -100q162 84 313 179l283 176q132 81 239 135t183 54q26 0 45 -20t19 -46q0 -40 -46 -85t-123 -95t-174 -103 l-198 -105l-198 -103q-97 -51 -174 -98t-123 -87t-46 -72q44 -28 148 -74l234 -104l268 -125q138 -67 253 -133t188 -130q71 -62 71 -115q0 -23 -13 -33t-30 -14t-34 -4h-25q-80 0 -152 27t-145 70t-151 98t-172 111t-206 108t-254 90v-500q-6 -10 -46 -22t-85 -16 q-12 -1 -23 -1q-31 0 -55 8t-24 31q0 8 3 18z" />
<glyph unicode="L" horiz-adv-x="1772" d="M138 52q22 86 34 226t19 305t8 340q0 88 0.5 170.5t-0.5 160.5q-1 156 -2 278t-1 182l200 -6l-24 -1466l1318 -36q38 -11 38 -39q0 -33 -38 -68q-34 -31 -91 -51q-36 -12 -73 -12q-23 0 -46 4z" />
<glyph unicode="M" horiz-adv-x="2118" d="M1812 124q-4 36 -13 111l-21 169l-25 198q-13 104 -26 198l-23 169q-10 75 -14 111q0 52 -3 94t-20 51t-53 -25t-101 -134t-164 -278l-241 -456q-14 -28 -39 -37t-54 8t-60 64t-55 131l-460 978q-16 -30 -30 -96t-26 -151t-22 -182t-18 -190t-14 -176l-10 -141 q-9 -58 -9 -114v-11q1 -61 4 -114t3 -97t-15 -73t-50 -43q-24 -10 -64 -10q-17 0 -37 2q-42 0 -64 21q-19 18 -19 52q0 6 1 13q10 78 24 201t32 264l36 286l34 266q16 121 26 206t14 107q8 56 18 96t30 66t54 37t90 11q76 -38 141 -118t121 -181t106 -212l95 -210 q45 -99 88 -174t85 -105l500 870q52 38 95 38q13 0 24 -3q51 -15 89 -79t66 -168t50 -228t38 -261l31 -267q15 -130 31 -245t36 -197q5 -29 5 -52q0 -45 -18 -71q-27 -39 -67 -39t-80 32t-52 88z" />
<glyph unicode="N" horiz-adv-x="1606" d="M1276 8q-94 164 -215 331l-249 336l-254 337q-126 168 -230 334q-18 -78 -28 -182t-15 -222t-6 -243t-1 -246t-2 -231t-8 -196q-34 -30 -61 -38t-65 -8q-36 0 -60 13q-21 11 -21 57q0 8 1 16q12 102 22 235t17 280t11 303t6 303t2 280t-4 235l66 61q26 23 51 23t55 -26 t76 -88l116 -162l174 -248l251 -347l347 -457l48 1244q26 50 54 69t74 19q42 0 60 -31t24 -73q4 -28 4 -56q0 -14 -1 -28q-3 -42 -3 -64q0 -78 2 -210t3 -288q0 -78 0.5 -158t-0.5 -163q-1 -165 -7 -311t-18 -257t-34 -159z" />
<glyph unicode="O" horiz-adv-x="1716" d="M56 748q0 172 59 314t161 243t242 157t302 56q156 0 303 -39t261 -121t183 -209t69 -305q0 -412 -193 -610t-595 -198q-170 0 -315 40t-251 125t-166 220t-60 327zM260 788q0 -298 149 -444t445 -146q148 0 270 46t208 129t133 198t47 255t-60 239t-156 162t-219 91 t-249 28q-112 0 -215 -44t-181 -119t-125 -177t-47 -218z" />
<glyph unicode="P" horiz-adv-x="1632" d="M940 1536q30 0 90 -4t132 -16t148 -32t139 -52t103 -78t40 -108q0 -136 -71 -237t-185 -175t-256 -122t-285 -76t-272 -39t-217 -11l-12 -560q0 -18 -26 -24t-61 -6t-67 3t-44 1q0 144 -1 286v96q0 97 1 200q14 188 20 333t27 251t66 177t134 114t233 61t364 18z M346 1130q-4 -30 -14 -72t-19 -87t-12 -88q-1 -9 -1 -17q0 -33 10 -59q12 -33 43 -51q21 -12 56 -12q15 0 33 2q58 0 152 7t199 24t211 48t191 78t139 112t54 153q-14 64 -65 109t-126 71t-165 35q-54 5 -109 5q-37 0 -74 -2q-93 -6 -181 -26t-158 -53t-114 -78t-50 -99z " />
<glyph unicode="Q" horiz-adv-x="1826" d="M68 578q0 192 55 373t163 321t265 225t361 85q31 2 61 2q159 0 279 -45q142 -53 231 -148t130 -221q37 -115 37 -238v-24q-4 -136 -48 -270t-122 -244q-3 -12 -3 -23q0 -23 12 -41q17 -26 47 -44t67 -33t68 -32t49 -40q12 -16 12 -37q0 -9 -2 -20q-10 -6 -30 -14t-40 -14 t-36 -10t-18 -2q-32 6 -59 25l-54 40q-27 21 -55 39t-60 22q-52 -48 -128 -87t-165 -67t-186 -43t-187 -15q-120 0 -235 44t-206 122t-147 184t-56 230zM272 642q0 -136 42 -228t117 -148t177 -80t224 -24q48 0 105 1t113 12t104 37t78 78l-456 416q-2 0 -3 7t-1 11 q0 24 10 37t26 20t34 9t36 2q68 0 129 -40t118 -94l114 -111q57 -57 117 -91q50 80 77 149t39 136t14 139t2 158q-14 90 -43 162t-101 123t-203 77q-122 24 -317 24h-30q-82 0 -153 -41t-129 -107t-103 -150t-75 -171t-46 -169t-16 -144z" />
<glyph unicode="R" horiz-adv-x="1826" d="M364 84q0 -20 -15 -30t-34 -14t-37 -4h-26q-52 0 -76 52t-31 149q-5 68 -5 155q0 37 1 78q3 136 6 302q1 62 1 128q0 110 -3 231q-5 193 -29 405q24 42 51 46t51 -12t44 -42t32 -44q62 60 172 91t239 39q45 3 90 3q85 0 173 -10q134 -15 244 -47t183 -80t80 -108 q1 -5 1 -11q0 -55 -66 -119q-72 -70 -254 -146q-28 -12 -86 -33l-132 -46l-153 -53l-151 -55q-72 -27 -126 -50t-76 -39q0 -12 10 -21t47 -30t113 -61l208 -112l330 -183l482 -275q10 -8 25 -18t28 -24t23 -29t10 -33q0 -26 -20 -39t-48 -19t-58 -6h-50q-30 0 -101 42 t-169 107l-214 145l-236 157q-120 77 -236 140t-212 97v-574zM328 1328q-18 -28 -23 -75q-2 -20 -2 -40q0 -28 4 -57q7 -50 22 -94t35 -64q8 -3 23 -3q23 0 62 8q63 13 149 39t184 63t187 78t160 83t102 79q20 24 20 44q0 11 -6 22q-17 29 -105 45q-44 0 -115 1h-48 q-50 0 -104 -1q-81 -2 -167 -8t-161 -21t-133 -39t-84 -60z" />
<glyph unicode="S" horiz-adv-x="1646" d="M38 228q0 24 17 47t39 43t43 34t29 20q4 -100 61 -152t146 -67q44 -8 94.5 -7.5t105.5 7.5q111 15 225 50t218 85t181 103t114 103q24 32 24 60q0 15 -7 28l-1038 232q-20 6 -49 21t-55 34t-44 42t-18 47q0 94 69 172t177 139t240 107t256 77t227 47t153 20q14 -6 46 -9 t63 -11t52 -22t13 -42q2 -36 -42 -61t-117 -43t-166 -31t-191 -29t-192 -37t-169 -52t-122 -75t-49 -108q0 -6 15 -13t58 -19l122 -33l208 -56l316 -88l445 -127q24 -54 24 -104q0 -22 -5 -44q-15 -70 -67 -131t-133 -115t-175 -97t-195 -76t-194 -56t-170 -34 q-65 -9 -110 -9h-15q-40 0 -116 15t-152 45t-133 73t-57 97z" />
<glyph unicode="T" horiz-adv-x="1594" d="M576 1234l-534 32q-10 0 -18 9t-13 23t-8 28t-3 24q0 34 22 67t54 33q182 -8 366 -24t369 -24q106 -5 211 -5q79 0 157 3q183 6 363 40q14 -4 24 -24t16 -46t9 -53t3 -41q-124 -36 -217 -43q-72 -5 -142 -5h-39l-181 4h-19q-86 0 -196 -16q-4 -66 -13 -158t-18 -199 l-19 -223q-10 -116 -16 -227t-8 -212v-39q0 -77 6 -140l-234 -18z" />
<glyph unicode="U" horiz-adv-x="1438" d="M1156 346q-102 -88 -187 -153t-170 -106t-177 -59q-64 -12 -139 -12q-33 0 -69 2q-156 18 -236 95t-108 192q-20 80 -20 174q0 40 4 83q12 142 39 291t58 294t41 265q8 2 32 3t32 1q10 1 20 1q51 0 68 -37q14 -31 14 -81q0 -20 -2 -42q-8 -79 -34 -184t-51 -218t-39 -223 q-6 -50 -6 -95q0 -55 9 -105q17 -90 74 -151t173 -73q17 -1 34 -1q138 0 236 44q110 49 182 138t113 211t62 262t28 291t11 299q12 38 32 55t44 19h7q21 0 43 -10q26 -12 54 -32q10 -142 10 -284q0 -35 -1 -71q-3 -177 -10 -356t-13 -361q-3 -91 -3 -184t3 -188 q0 -28 -26 -37q-21 -7 -47 -7h-12q-33 2 -63 11t-36 19z" />
<glyph unicode="V" horiz-adv-x="1604" d="M652 40q-32 86 -90 211l-128 263l-142 278l-131 258q-59 118 -96 204t-37 116q0 10 19 25t43 27q28 14 64 30q88 -162 165 -323l150 -305q73 -144 144 -267t147 -211q12 14 51 86t92 180l117 241l126 265l118 252l94 206q40 48 78 75t66 28h2q27 0 43 -24q17 -25 17 -79 l-710 -1558q-20 -12 -48 -19t-57 -7t-55 11t-42 37z" />
<glyph unicode="W" horiz-adv-x="2408" d="M1826 166q-28 40 -70 122l-90 183l-101 209q-53 108 -106 201t-102 159t-89 82q-30 -46 -69 -131t-82 -190l-86 -221l-83 -225l-73 -203l-55 -152l-156 8l-624 1444q-6 12 -6 23q0 12 7 21q13 18 35 27t48 13t40 4q38 0 57 -16t30 -41t19 -55t20 -58l72 -160l88 -196 l94 -204l89 -186q41 -84 72 -140t43 -68l179 440l128 297q53 117 85 181t51 94t28 36t13 6q32 0 75 -40t90 -107t98 -153l102 -179l98 -185l88 -171l73 -137q32 -58 52 -82q32 102 62 224t57 254t51 269l46 267q22 130 40 249l34 217q62 0 96 -12t49 -34t18 -52t3 -64 q2 8 -7 -66t-28 -206t-47 -307t-64 -367t-80 -387t-94 -367q-50 -34 -83 -36h-6q-29 0 -50 19q-23 21 -41 61z" />
<glyph unicode="X" horiz-adv-x="1536" d="M746 562q-64 -54 -122 -142l-117 -174q-59 -86 -123 -148t-142 -62q-76 0 -110 24q-25 18 -25 67q0 17 3 39l474 562l-217 272l-146 185l-88 113l-46 60q-15 20 -17 24t-2 6q0 26 19 44t46 25t55 6t48 -11l480 -580l596 706l146 -118l-600 -712q58 -78 126 -139t137 -113 l134 -98q65 -46 114 -94t79 -101t30 -117q-8 -58 -52 -78q-12 -6 -26 -6q-37 0 -86 38z" />
<glyph unicode="Y" horiz-adv-x="1368" d="M694 -46q-16 0 -45 10t-56 26t-45 37t-8 45q10 16 26 60t36 105l42 131l43 139l39 131l30 106l-668 682q-19 22 -19 37q0 4 1 7q6 16 24 25t39 11t29 2q34 0 67 -6t71 -25t85 -58t112 -106t152 -165l203 -238q76 222 132 365t101 228t83 121t78 42q24 0 47 -5t33 -37 q-78 -166 -149 -374l-146 -432l-157 -447q-82 -223 -180 -417z" />
<glyph unicode="Z" horiz-adv-x="2008" d="M1924 40q-170 -12 -387 -24t-440 -18q-191 -5 -370 -5h-59q-206 1 -353 15t-212 41q-34 14 -34 34q0 18 27 41l1080 1206q-96 6 -190 6q-35 0 -70 -1q-128 -3 -254 -12t-252 -20t-254 -17q-20 0 -31 4t-17 18t-8 38t-4 66q138 14 299 28t328 25t332 19t313 14 q34 0 67 -10t33 -54q-26 -76 -100 -178t-172 -217l-211 -237l-220 -236l-198 -213q-91 -99 -145 -171q130 -26 310 -27h28q168 0 351 11q199 12 405 29t390 29z" />
<glyph unicode="[" horiz-adv-x="1088" d="M78 1948q82 12 181 35l201 45q102 22 199 39t177 17q0 -16 3 -33t3 -33t-4 -29t-18 -21q-30 -8 -79 -18l-107 -22q-58 -12 -119 -27t-116 -30t-100 -32t-67 -35q-10 -232 9 -453t44 -440l48 -440q23 -221 23 -453l636 86q0 -10 7 -39t12 -59t5 -55t-14 -29l-840 -132z " />
<glyph unicode="\" horiz-adv-x="1286" d="M1106 -6q-196 222 -363 430l-298 385l-226 316q-95 139 -149 225t-66 110t22 -28q0 24 10 38t26 20t35 8t37 2q96 -94 185 -209t174 -241l170 -255q85 -129 176 -253t188 -236t207 -202q0 -50 -41 -80t-87 -30z" />
<glyph unicode="]" horiz-adv-x="1384" d="M200 -106q96 6 188 6t173 6t148 21t115 51t74 97t26 159q0 192 -9 400t-25 420t-38 420t-50 398q-96 6 -185 -10t-177 -39t-177 -43t-185 -20q-8 0 -26 13t-33 34t-18 49t21 60q0 2 48 9l123 18l170 25l192 28l186 26l153 20q18 0 43 3t50 1t45 -11t26 -35 q-12 -214 -9 -472t16 -540t35 -577t48 -583q-24 -4 -96 -10l-169 -14q-97 -8 -206 -16l-205 -15q-96 -7 -169 -11t-95 -4q-4 0 -6 42t-2 94z" />
<glyph unicode="^" horiz-adv-x="786" d="M44 1364q0 30 26 76t74 95t115 98t147 85l95 -61q41 -27 77 -60t73 -79t83 -120q16 -30 17 -56t-11 -42t-35 -18t-55 16l-56 40l-32 23q-12 9 -21 19t-26 27l-46 47l-81 82q-54 -38 -93 -70t-67 -63t-47 -62t-33 -67q-46 0 -75 13t-29 77z" />
<glyph unicode="_" horiz-adv-x="1758" d="M1562 292q34 0 66 -9t32 -53q0 -30 -12 -54t-30 -52q-182 -4 -375 -14t-389 -25t-391 -36t-381 -49q0 2 -1 16t-1 31v31v16q138 58 322 82t385 37l402 27q201 14 373 52z" />
<glyph unicode="`" horiz-adv-x="440" d="M378 1342l-42 -108l-102 72q-38 28 -60 50t-34 41t-20 45q-4 26 -1 50t15 37t31 10t45 -33z" />
<glyph unicode="a" horiz-adv-x="1302" d="M1050 414q-58 -90 -134 -163t-167 -124t-198 -75q-76 -17 -157 -17q-34 0 -68 3q-42 0 -90 10t-89 32t-67 58t-26 90q-9 46 -9 93q0 66 18 134q31 115 97 222t162 198t205 154t224 91q67 16 132 16q46 0 91 -8q82 0 128 -54t69 -144t29 -207t10 -241t11 -245t31 -221 h-148q-10 68 -15 120l-9 97q-4 45 -11 87t-19 94zM898 948q-14 1 -29 1q-65 0 -132 -22q-83 -27 -160 -76t-144 -116t-117 -139t-77 -143q-23 -60 -23 -112q0 -10 1 -19q5 -60 45 -102t124 -56q120 2 231 61t198 146t145 188t75 187q6 30 6 56q0 50 -21 88q-32 58 -122 58z " />
<glyph unicode="b" horiz-adv-x="1438" d="M474 18q-14 4 -50 2t-86 -2t-111 6t-125 26q-10 114 -15 250t-6 284q0 74 -0.5 150t0.5 153l2 306q0 76 0.5 149t-0.5 144q-1 142 -5 266q-2 11 -2 22q0 39 25 58q31 24 70 24t71 -21q27 -18 27 -46q0 -5 -1 -11l16 -1080q78 102 191 194t235 158t244 99q81 22 150 22 q36 0 68 -6q96 -17 156 -92t60 -221q0 -100 -46 -192t-122 -175t-172 -155t-198 -131t-200 -105t-176 -76zM1242 828q-16 74 -67 108t-124 34t-160 -30t-175 -82t-169 -122t-141 -152t-91 -172q-23 -68 -23 -136q0 -22 2 -44q-2 -6 -2 -10q0 -22 39 -27q9 -1 19 -1 q44 0 111 18q83 22 189 72t215 127t209 181t168 236z" />
<glyph unicode="c" horiz-adv-x="1620" d="M54 394q-1 15 -1 29q0 77 35 154q42 91 117 174t176 154t213 121t227 75q82 18 158 18q30 0 59 -3q38 0 76 -4t67 -20t47 -46t18 -82q0 -26 -13 -46t-32 -38t-41 -32t-40 -28q-6 28 -12 53t-19 44t-34 30t-55 11q-118 -24 -255 -73t-252 -117t-185 -153q-57 -69 -57 -147 q0 -18 3 -36q0 -88 34 -142t89 -84t126 -40t145 -10q114 0 221 34t209 76t200 76t192 34q16 0 33 -2t30 -11t18 -26q2 -8 2 -18q0 -12 -3 -29q-10 -36 -71 -72t-150 -68t-194 -60t-204 -48t-178 -31t-117 -11q-88 0 -190 20t-189 66t-145 121t-58 187z" />
<glyph unicode="d" horiz-adv-x="1312" d="M1026 276q-138 -106 -277 -177t-267 -85q-27 -3 -53 -3q-99 0 -190 42q-115 53 -205 197q-13 61 -13 118q0 66 17 128q32 116 106 212t180 167t226 111t247 44h24q114 0 219 -34q0 30 3 92l7 140l8 164q4 86 9 164l9 139l6 91q4 48 11 88t25 70t49 47t83 17 q0 -240 -14 -468t-25 -459q-10 -212 -10 -431v-40q1 -240 33 -506q0 -58 -21 -82t-71 -24q-48 0 -73 31t-34 74t-9 91v82zM208 354q4 -92 53 -131q35 -28 89 -28q22 0 48 5q42 0 129 23t180 60t175 82t116 91v332q0 30 -15 48t-38 27t-48 11t-43 2q-19 3 -40 3 q-39 0 -85 -10q-71 -15 -146 -48t-146 -82t-125 -110t-84 -131q-22 -52 -22 -107q0 -19 2 -37z" />
<glyph unicode="e" horiz-adv-x="1384" d="M54 328q-5 44 -5 86q0 117 36 230q49 154 148 272t239 187q132 65 288 65h18q28 0 75 -8t100 -25t104 -43t90 -62t59 -81q13 -30 13 -65q0 -17 -3 -36q-82 -58 -189 -80t-218 -31t-217 -16t-185 -37t-122 -95q-31 -47 -31 -125q0 -29 4 -62q30 -110 99 -162t160 -63 q31 -4 64 -4q62 0 130 14q103 21 202 55t185 72l142 62q26 0 44 -19t18 -45q-50 -86 -152 -154t-230 -110t-267 -52q-35 -2 -68 -2q-101 0 -193 22q-122 30 -214 106t-124 206zM760 1018q-36 0 -88 -8t-100 -28t-83 -52t-35 -82l496 82q-32 48 -83 68t-107 20z" />
<glyph unicode="f" horiz-adv-x="1520" d="M130 414q-16 0 -33 15t-31 38t-23 51t-9 52l380 136q-34 286 -44 500q-5 107 -5 198.5t5 167.5q10 152 40 250t78 155t114 78t146 21q74 0 175 -42t194 -108t158 -147t65 -159q0 -6 -1 -18t-3 -25l-4 -25q-2 -12 -4 -16q-44 58 -106 125t-136 123t-156 93t-164 37 q-84 0 -128 -59t-63 -143t-21 -173t-2 -149q0 -166 10 -324t60 -318q108 0 215 13t216 28l221 29q112 14 228 16q6 0 9 -15t3 -39t1 -52t5 -54l-858 -104l46 -554l-204 8q0 132 -13 259t-35 257z" />
<glyph unicode="g" horiz-adv-x="1320" d="M794 -902q78 2 129 26t82 65t44 95q11 47 11 101v17q-1 25 -1 68v48q1 78 3 176l4 205l4 205q2 98 2 175t-2 117q-72 -66 -162 -137t-196 -127t-228 -89q-94 -25 -197 -25q-31 0 -63 2q-74 0 -120 36t-46 112q4 86 41 187t98 202t141 196t171 167t188 115t192 43t182 -53 t157 -171q28 -404 36 -700q4 -132 4 -246q0 -143 -6 -259q-10 -209 -37 -341t-69 -210t-99 -112t-128 -45t-155 -11t-178 -8h-96q-62 0 -125 13t-109 44t-46 91zM880 906q-78 0 -162 -46t-163 -116t-145 -156t-108 -167t-54 -146q-3 -18 -3 -33q0 -40 23 -60q17 -10 48 -10 q22 0 52 5q70 13 156 49t178 94t168 128t125 150t49 162q0 30 -15 57t-38 47t-52 31t-59 11z" />
<glyph unicode="h" horiz-adv-x="1268" d="M1032 60q0 96 -1 208t-11 210t-32 167t-64 79q-114 22 -204 31q-35 4 -67 4q-50 0 -91 -9q-68 -14 -117 -59t-83 -131t-55 -219t-31 -323h-194q4 140 4 271q0 115 -3 222q-7 231 -15 432t-9 371v16q0 160 19 292q20 40 52 47q10 2 20 2l44 -10q32 -15 56 -45t26 -62 q-2 -22 -4 -72t-4 -117t-3 -145q0 -39 -0.5 -77.5t0.5 -77.5q1 -77 5 -148t14 -123q66 44 135 78t145 52t162 21h28q75 0 160 -13q100 -52 157 -101t86 -106t38 -122t12 -148t8 -187t27 -234q-10 -18 -44 -30t-71 -12t-66 16t-29 52z" />
<glyph unicode="i" d="M292 1174q18 -246 32 -523t24 -559q-10 -40 -41 -58t-67 -19h-6q-33 0 -61 11q-31 12 -39 32v1116h158zM60 1514q0 46 26 66t62 23q8 1 17 1l55 -8q36 -10 52 -24q8 -28 8 -50q0 -29 -14 -46q-24 -30 -63 -33h-10q-34 0 -71 17q-42 20 -62 54z" />
<glyph unicode="j" horiz-adv-x="456" d="M-284 -716q0 2 5 16l11 31q6 17 12 31t6 16l86 -63q44 -31 92 -55t98 -39t104 -15q38 0 67 29t48 73t29 93t10 89q0 212 -16 414l-33 401q-17 199 -28 400q-6 105 -6 214q0 99 5 201q-6 34 11 56t44 34t57 17t48 5q-21 -155 -21 -328v-16q1 -182 14 -368t32 -368t31 -347 q11 -152 11 -282v-21q-1 -138 -27 -236t-82 -147q-44 -38 -114 -38q-20 0 -42 3q-46 0 -112 9t-133 32t-124 62t-83 97zM276 1768q28 -22 36 -59q4 -16 4 -31q0 -18 -6 -34q-10 -28 -39 -36q-5 -1 -10 -1q-26 0 -63 33q0 18 3 40t11 42t24 33t40 13z" />
<glyph unicode="k" horiz-adv-x="1572" d="M122 934q0 102 -7 204t-16 204t-16 203t-7 203q0 44 22 62t62 18h21q17 0 21 -2q26 -106 37 -222t19 -245l16 -270q8 -141 28 -295q36 18 104 65l151 107l173 125q90 65 171 118t144 88t91 35q22 0 35 -10t27 -36q-82 -104 -187 -189t-217 -163l-223 -153 q-111 -75 -203 -159q166 -46 317 -94l292 -89q141 -41 278 -70t275 -37q0 -30 -2 -52t-12 -38t-31 -25t-59 -11h-20q-90 26 -223 55l-284 60l-304 65q-153 34 -281 68q0 -26 5 -76t7 -108q1 -17 1 -33q0 -41 -4 -82q-5 -57 -27 -99t-64 -60q-19 -8 -43 -8q-30 0 -69 12z" />
<glyph unicode="l" horiz-adv-x="402" d="M56 1620l43 57q21 27 61 27q26 0 48 -62t38 -165t28 -235t20 -274t13 -283t8 -258t4 -201t1 -114q0 -36 -15 -58t-38 -35t-52 -17t-55 -4q-4 0 -11 1t-9 1q0 52 -3 159l-7 242l-8 284q-4 149 -9 284t-10 242t-7 159q0 14 -5 50l-11 76q-6 40 -13 75t-11 49z" />
<glyph unicode="m" horiz-adv-x="1992" d="M66 40v39q0 71 5 168q7 125 12 268q4 119 4 240v48q-1 145 -15 265q0 46 32 63t76 17q16 0 27 -39t18 -90t13 -101t12 -72q32 60 102 108t156 75t177 32q16 1 31 1q73 0 136 -20q76 -24 124 -79t48 -149q32 60 112 119t181 104t209 70q90 21 167 21q15 0 30 -1 q89 -5 145 -47t54 -132l54 -930q0 -4 -33 -11t-73 -9q-11 -1 -22 -1q-27 0 -52 4q-34 5 -34 25q-2 44 -2 90q0 69 4 141q6 121 7 245v25q0 111 -8 220q-9 121 -45 229q-58 -4 -129 -17t-143 -46t-139 -94t-119 -164t-85 -252t-33 -359q-10 -34 -47 -44q-26 -7 -54 -7 q-11 0 -23 1q-40 4 -69 19t-23 31q18 104 30 184t16 148q2 39 2 75q0 27 -1 53q-3 60 -13 123t-27 134t-41 163q-134 0 -229 -37t-158 -100t-98 -149t-51 -184t-16 -204t8 -210l-71 -27q-39 -15 -77 -15q-22 0 -34 8t-28 34z" />
<glyph unicode="n" horiz-adv-x="1280" d="M1010 984q14 32 -30 37q-12 1 -25 1q-39 0 -95 -10q-76 -14 -170 -44t-179 -71t-148 -91t-77 -100l-2 -680h-166q-12 28 -19 89t-11 144t-5 180v65q0 65 1 131q2 99 6 194t9 173t10 131t11 71q22 16 50 30t56 14q36 -2 49 -47t13 -102t-7 -111t-7 -74q208 154 358 224 t253 74h15q93 0 150 -48q62 -52 96 -144t45 -215t13 -259q1 -68 1 -137t-1 -140v-70q0 -103 4 -199q-24 -12 -33 -14q-4 -1 -8 -1q-6 0 -12 2q-11 3 -29 7t-56 6q-24 98 -27 224q-2 76 -2 153q0 52 1 105q1 44 1 88q0 88 -3 174q-4 130 -30 240z" />
<glyph unicode="o" horiz-adv-x="1440" d="M130 474q0 164 72 281t182 195t240 119t248 53q17 1 33 1q96 0 181 -30q100 -35 172 -99t111 -152q31 -70 31 -146q0 -20 -2 -40q0 -164 -65 -287t-173 -206t-251 -124t-299 -41q-236 0 -358 110t-122 366zM302 414q0 -84 21 -134t62 -75t100 -33t137 -8q120 0 232 23 t198 78t138 146t52 227q0 70 -20 133t-60 110t-98 75t-132 28q-98 -16 -196 -37t-184 -76t-152 -162t-98 -295z" />
<glyph unicode="p" horiz-adv-x="1426" d="M154 1056q8 8 30 18t46 9t46 -19t32 -62q286 96 490 111q53 4 100 4q137 0 232 -32q128 -43 184 -132q48 -76 48 -167q0 -16 -2 -33q-10 -111 -83 -233t-204 -230t-316 -191t-417 -117q0 -28 1 -88t3 -136t3 -160t3 -161t5 -139t7 -92q2 -18 2 -35q0 -65 -38 -96t-99 -31 q-16 0 -33 2zM846 958q-78 0 -172 -18t-175 -61t-133 -116q-47 -65 -47 -159q0 -11 1 -22v-432q278 62 456 146t273 174t117 178q9 35 9 66q0 49 -21 91q-34 69 -116 111t-192 42z" />
<glyph unicode="q" horiz-adv-x="1314" d="M1050 206q-52 -48 -130 -88t-164 -68t-171 -43t-153 -15q-46 0 -105 10t-111 33t-88 62t-36 97q-2 23 -2 45q0 90 26 175q32 106 94 197t150 165t190 125t213 77q96 23 192 23q15 0 29 -1q72 0 133 -52t101 -118q0 -434 2 -858t30 -858h-39q-15 0 -30 -1t-36 -1h-57z M280 280q0 -48 18 -74t48 -37t68 -12t78 -1q84 0 171 17t158 57t117 109t46 171q0 22 7 75t9 108v18q0 44 -8 79q-10 42 -42 42q-120 0 -239 -38t-215 -110t-156 -174t-60 -230z" />
<glyph unicode="r" horiz-adv-x="1412" d="M68 1144q0 38 27 50t59 12q52 0 83 -43t48 -100t24 -112t11 -79q74 68 166 126t205 99t252 60q91 12 196 12q55 0 115 -3q14 3 26 3q35 0 55 -26q27 -35 31 -83q1 -8 1 -17q0 -39 -16 -77q-19 -46 -57 -54q-70 52 -169 67q-48 7 -98 7q-53 0 -108 -8q-107 -16 -211 -59 t-185 -109t-128 -152q-40 -73 -40 -157q0 -14 1 -29q0 -62 8 -121t17 -118t17 -118t8 -119q-54 -4 -87 -14q-30 -9 -51 -9h-4q-22 1 -38 20t-36 77q-2 14 -10 84l-19 170l-25 219l-27 234l-24 212q-11 97 -17 155z" />
<glyph unicode="s" horiz-adv-x="1286" d="M346 40q142 46 265 108t206 122t112 111q11 20 11 36q0 25 -27 41q-33 19 -115 19q-28 0 -62 -2q-132 -9 -374 -69q-72 2 -129 28t-97 64t-61 83t-21 87q0 66 45 131t121 123t176 105t210 76t225 38q36 3 71 3q77 0 150 -14q60 0 70 -53t10 -171q-82 38 -177 54 q-76 13 -153 13q-19 0 -38 -1q-96 -4 -186 -27t-159 -64t-113 -101t-46 -136q0 -42 33 -55q31 -12 72 -12h6q45 1 94 10t79 9q230 49 373 49q25 0 47 -1q150 -10 202 -64q31 -32 31 -75q0 -30 -15 -64q-36 -85 -139 -179t-261 -183t-350 -151q-10 0 -22 15t-25 35t-23 38 t-16 24z" />
<glyph unicode="t" horiz-adv-x="1036" d="M44 802l-4 172h374v646q8 24 29 44t45 30q14 6 29 6q10 0 21 -3q26 -7 44 -37q20 -82 28 -165t10 -166t3 -166t7 -163q38 6 88 7l101 2l100 2q49 1 89 5l-8 -180l-364 10q-1 -62 -1 -119t1 -110q2 -105 5 -205t5 -204t2 -226q-45 -20 -79 -20q-27 0 -46 13q-43 29 -61 97 t-18 166t3 201t3 199t-18 164h-388z" />
<glyph unicode="u" horiz-adv-x="1300" d="M56 332q0 40 -7 112t-12 157q-4 71 -4 144v29q1 88 15 159t45 117t89 46q70 -20 95 -52q22 -29 22 -68q0 -46 -24 -116q-21 -60 -43 -137t-34 -170q-5 -40 -5 -83q0 -58 9 -122q18 -72 73 -111t131 -50q35 -5 72 -5q44 0 91 7q87 13 169 44t150 76t106 97q20 100 22 183 v41q0 61 -4 120q-6 78 -16 159t-12 179q33 14 60 14q35 0 60 -24q44 -42 67 -131t31 -211t9 -251t1 -251t10 -208q-30 -29 -61 -29q-25 0 -52 19q-59 42 -91 182q-32 -28 -110 -69t-179 -73t-212 -46q-41 -5 -80 -5q-67 0 -127 15q-96 24 -166 97t-88 215z" />
<glyph unicode="v" horiz-adv-x="1328" d="M90 968q-4 13 -4 27q0 19 8 39q14 34 39 54t53 19t46 -37l420 -780q20 32 64 113l100 183l117 214l114 204q53 92 92 152t51 60q26 0 46 -12t33 -31t18 -41q4 -16 4 -30q0 -6 -1 -12l-186 -404l-135 -293l-95 -198q-38 -77 -69 -122t-57 -61t-56 -16q-40 0 -105 78 t-146 211t-171 310t-180 373z" />
<glyph unicode="w" horiz-adv-x="2070" d="M1018 690q-54 -182 -91 -337t-74 -257t-84 -137q-18 -13 -39 -13q-36 0 -84 36q-42 44 -97 130t-114 192t-116 221t-102 218t-73 182t-28 113q0 46 27 57t62 1t70 -33t51 -45q18 -26 43 -88l62 -156l87 -215q50 -121 120 -265q32 50 63 123t61 153l58 159q28 79 57 143 t60 104t63 42q5 3 12 3q20 0 51 -28q41 -37 93 -103t109 -151l110 -165l97 -147q44 -67 68 -97q16 0 31 60t34 150l43 194q24 104 58 194t81 150t111 60q36 0 51 -27q12 -21 12 -46q0 -7 -1 -13l-62 -193l-69 -223l-72 -225q-37 -111 -73 -200t-71 -146t-65 -65 q-7 -4 -15 -4q-19 0 -44 20q-35 28 -78 82t-91 128l-99 155l-103 162q-52 81 -100 147z" />
<glyph unicode="x" horiz-adv-x="1204" d="M66 76l34 35q28 29 66 72l82 95l86 104q42 52 77 100t53 82l-210 232l-78 85l-67 74l-47 54l-18 21l146 156l123 -153l78 -102l52 -68q21 -27 42 -51l47 -52q26 -28 70 -70q34 44 76 107l90 133l98 140q50 70 102 130q30 0 53 -12t39 -29t25 -37t9 -38q-44 -96 -93 -166 t-94 -127l-82 -108q-37 -51 -59 -111q60 -42 128 -107t129 -132t108 -125t67 -88q0 -10 -11 -29t-27 -39t-33 -37t-31 -23q-48 24 -100 82t-109 128l-119 140q-62 70 -128 116q-36 -40 -90 -106l-113 -135l-114 -129q-55 -60 -93 -88q-14 -2 -38 3t-49 15t-47 25t-30 33z " />
<glyph unicode="y" horiz-adv-x="1404" d="M594 -942q-28 -68 -65 -94q-33 -23 -61 -23h-6q-30 3 -45 32q-7 14 -7 31q0 18 8 40q28 114 65 236l77 242l80 235l76 217q-22 22 -63 73l-93 119l-111 149l-117 162l-111 158q-53 77 -91 139t-58 101q-15 30 -15 42q0 3 1 5l94 96q46 -44 104 -107t118 -136l122 -151 l118 -153l103 -142q47 -67 79 -117l59 129q21 47 37 88l34 87l51 126l88 204l147 322q14 6 42 9q8 1 17 1q19 0 37 -5q26 -7 41 -28q10 -14 10 -35q0 -11 -3 -24z" />
<glyph unicode="z" horiz-adv-x="1268" d="M226 306q90 88 172 160l157 140l147 140q72 72 144 160q-29 1 -60 1q-61 0 -126 -5q-98 -8 -192 -19l-177 -20q-83 -9 -142 -9t-86 14q-16 8 -16 24q0 10 7 24q18 34 54 60t70 26q10 0 21 2t39 6t79 10t138 15t218 21t321 26q78 -10 104 -41q17 -20 17 -47q0 -15 -5 -32 q-14 -48 -59 -109t-111 -129t-144 -140l-157 -143l-151 -138q-72 -67 -126 -123q88 -6 157 -6t128 3t115 7t117 5h31q48 0 102 -2q72 -3 166 -15q14 0 31 -9t28 -28t14 -47q1 -5 1 -10q0 -24 -12 -54q-60 7 -133 7q-29 0 -60 -1q-109 -4 -225 -12t-232 -17t-213 -9t-168 13 t-99 47q-15 18 -15 44q0 23 12 52q25 62 119 158z" />
<glyph unicode="{" horiz-adv-x="902" d="M1078 -346q-158 10 -261 56t-168 119t-98 166t-50 200t-24 222t-19 231q-16 30 -63 65l-101 78q-54 43 -101 97t-63 122q8 62 29 104t49 72t60 52l62 43q30 21 57 47t43 64q-4 94 -15 215t-14 247t11 247t61 215t136 152t235 58v-136q-38 2 -77 -3t-74 -35t-63 -97 t-43 -187t-14 -305t23 -453q0 -54 -39 -87t-86 -62t-86 -59t-39 -76q-12 -24 1 -57t40 -68t63 -69t72 -60t66 -42t46 -14q-26 -246 -9 -404t59 -253t101 -139t118 -60t109 -16t76 -8z" />
<glyph unicode="|" horiz-adv-x="372" d="M130 2450h148v-2616q0 -4 -20 -4h-45q-25 0 -48 -1t-27 -3z" />
<glyph unicode="}" horiz-adv-x="1226" d="M70 -544l-10 180q26 8 79 8t114 16t122 59t105 136t61 250t-9 399q24 -2 80 32t111 83t90 102t17 89q0 30 -19 54t-48 43t-63 38t-63 40t-48 46t-19 61q12 252 -8 425t-60 286t-92 177t-104 96t-100 44t-76 20v134q152 0 257 -56t175 -147t108 -208t56 -239t20 -240 t-2 -212q26 -56 76 -98t102 -81t93 -81t47 -100q-4 -78 -52 -139t-109 -108t-116 -78t-71 -49q-14 -114 -21 -228t-24 -219t-51 -198t-102 -164t-175 -117t-271 -56z" />
<glyph unicode="~" horiz-adv-x="1138" d="M526 1314q-50 44 -88 74t-77 27t-86 -48t-119 -151q-8 0 -22 2t-28 8t-26 16t-16 26q38 120 113 212t159 126q34 14 65 2t62 -37t60 -58t60 -63t64 -50t69 -20q56 0 87 17t57 50t57 81t87 108q8 0 21 -5t25 -14t20 -19t8 -20q10 -56 -14 -111t-70 -101t-108 -78t-127 -43 t-126 4t-107 65z" />
<glyph horiz-adv-x="1758" d="M286 60q0 40 46 64l788 1372q10 18 23 27t29 1t34 -34t40 -78l-808 -1414q-20 0 -46 1t-50 7t-40 18t-16 36zM1284 162q-58 2 -93 36t-48 84t-5 107t37 103t78 73t117 19q32 0 85 -2t105 -14t92 -38t50 -74q14 -74 -31 -129t-115 -92t-147 -55t-125 -18zM1548 474 q-54 0 -103 -6t-86 -27t-58 -60t-21 -103q54 0 102 8t85 30t59 60t22 98zM38 1018q0 66 42 124t104 100t133 67t127 25q32 0 65 -5t59 -20t42 -40t16 -67q0 -60 -50 -113t-121 -92t-147 -62t-128 -23q-24 0 -49 5t-46 18t-34 33t-13 50zM414 1170q-22 0 -50 -8t-55 -23 t-45 -36t-18 -45q0 -2 1 -10t1 -10l166 82v50z" />
<glyph unicode="&#xa1;" horiz-adv-x="346" d="M160.39 1520.97q19.7959 0 45.5312 0.720703q25.7344 0.720703 49.4902 5.04297q23.7549 4.32227 39.5918 13.6875t15.8369 26.6543q-15.8369 38.9023 -49.4902 59.7939t-70.2764 25.9336q-36.6221 5.04297 -68.2959 -3.60156t-43.5518 -26.6553 q-11.8779 -18.0098 4.94922 -44.6641q16.8262 -26.6553 76.2148 -56.9121zM277.187 19.6641q-5.93848 17.2891 -8.9082 72.7598t-3.95898 135.435q-0.990234 79.9648 -0.990234 177.938q0 97.9746 -0.989258 200.271q-0.990234 102.297 -2.96973 202.433 q-1.97949 100.135 -5.93848 183.701t-10.8877 144.8t-18.8066 85.7275h-166.288q0 -148.402 8.9082 -297.524t18.8066 -298.245q9.89844 -149.122 18.8066 -298.965t8.9082 -301.126z" />
<glyph unicode="&#xa2;" horiz-adv-x="1620" d="M742 10q-34 -4 -62 -7t-44 -3q-88 0 -190 20t-189 66t-145 121t-58 187q-10 106 47 212t155 198t225 164t259 112v344h148l-2 -312q44 4 106 8t118 -8t96 -45t40 -103q0 -26 -13 -46t-32 -38t-41 -32t-40 -28q-12 60 -30 90t-47 39t-68 2t-89 -21l-2 -736q78 24 153 55 l148 60q73 29 144 48t141 19q16 0 33 -2t30 -11t18 -26t-1 -47q-10 -40 -78 -77t-165 -71t-210 -62t-213 -46v-200q0 -4 -20 -4h-45q-25 0 -48 -1t-27 -3zM648 156q48 0 94 6l-2 722q-98 -36 -191 -84t-163 -105t-107 -123t-25 -140q0 -88 34 -142t89 -84t126 -40t145 -10z " />
<glyph unicode="&#xa3;" horiz-adv-x="1380" d="M-54 678q0 34 29 47t59 17q40 4 99 11t99 15q6 158 16 272t34 193t67 126t117 73q166 56 299 63t234 -17t171 -71t111 -97t53 -94t-3 -64t-57 -6t-110 80q-24 24 -79 56t-127 55t-152 31t-154 -13t-137 -81t-97 -170l-38 -308q12 2 41 1t62 -3t62 -3t43 1q50 0 85 -17 t46 -40t-3 -48t-60 -39l-278 -2l-68 -482l176 32q76 14 139 22t121 7t122 -11t142 -30t180 -54q16 -6 22 -21t0 -32t-28 -32t-62 -19q-38 -4 -77 4t-88 20t-112 23t-147 11q-56 0 -92 -6t-65 -16t-58 -22t-72 -21t-107 -15t-162 -4q12 46 20 116t14 154t9 175t7 181 l-120 -12q-16 0 -38 2t-41 9t-33 19t-14 34z" />
<glyph unicode="&#xa4;" horiz-adv-x="1440" d="M-2 72q4 2 30 24l60 52l69 60q35 30 57 52q-98 112 -98 342q0 126 43 223t115 171l-76 74l-63 63l-43 43l-16 16l180 168l119 -131l85 -95q96 52 199 79t199 37q114 6 218 -32q18 20 44 53l54 66l54 64q26 31 44 49q36 0 65 -13t49 -32t31 -41t11 -40q-12 -22 -33 -55 l-43 -66l-44 -63q-22 -30 -34 -48q58 -64 89 -141t21 -167q0 -104 -27 -191t-75 -159q76 -72 135 -135t83 -95q0 -12 -14 -33t-33 -42t-41 -39t-38 -26q-56 24 -117 83l-129 131q-108 -76 -245 -114t-287 -38q-56 0 -105 5t-93 17l-42 -36l-59 -49l-58 -47q-27 -22 -37 -28 q-18 -2 -48 4t-61 17t-58 28t-37 35zM268 518q0 -84 21 -134t62 -75t100 -33t137 -8q120 0 232 23t198 78t138 146t52 227q0 70 -20 133t-60 110t-98 75t-132 28q-98 -16 -196 -37t-184 -76t-152 -162t-98 -295z" />
<glyph unicode="&#xa5;" horiz-adv-x="1368" d="M302 718q2 2 31 6t77 10t110 12t132 14q0 30 1 58t3 54l-668 682q-24 28 -9 51t44 40t59 27t38 10q40 -30 71 -51t62 -46t69 -61t95 -98l138 -155l197 -233q76 222 134 363t105 223t86 115t79 39q12 0 27 -10t28 -26t24 -34t17 -34q-40 -84 -90 -179l-102 -199l-104 -216 q-52 -112 -94 -232l-4 -64q56 8 106 14t96 14q40 12 61 0t25 -36t-7 -51t-35 -43l-252 -34l-6 -114l133 21q71 11 167 31q58 0 75 -37t7 -89q-118 -2 -211 -15t-177 -33l-20 -404q-6 -18 -35 -38t-61 -26t-60 11t-34 71q6 12 11 44t7 78t4 103t2 121q-76 -16 -156 -26 t-178 -10q-30 0 -45 18t-15 68q0 10 16 26t26 16q114 18 197 29t153 19v108l-276 -36q-12 0 -31 -1t-39 2t-35 12t-19 31z" />
<glyph unicode="&#xa6;" horiz-adv-x="328" d="M254 724l-20 -638q-2 -24 -23 -42t-47 -25t-53 -2t-41 23q2 40 4 110t4 161t5 196t7 217h164zM92 786l11 332q5 146 7 212q-4 56 21 71t59 15q28 0 52 -6t34 -40l-20 -586z" />
<glyph unicode="&#xa7;" horiz-adv-x="1286" d="M162 172q120 20 233 51t208 67t164 74t103 70t26 56t-70 32t-182 -1t-312 -43q-72 2 -129 28t-97 64t-61 83t-21 87q0 84 68 163t178 145q-84 38 -130 103t-46 129q0 66 45 131t121 123t176 105t210 76t225 38t221 -11q60 0 70 -53t10 -171q-82 36 -177 53t-191 13 t-186 -27t-159 -64t-113 -101t-46 -136q0 -42 33 -55t78 -12t94 10t79 9q218 46 358 48t211 -29t80 -88t-32 -127t-128 -147t-207 -149q158 -16 223 -67t55 -119t-84 -144t-196 -144t-280 -118t-336 -64q-10 0 -22 15t-25 35t-23 38t-16 24zM230 716q0 -28 14 -42t36 -20 t50 -6t58 4q116 38 221 87t185 99t129 98t55 84q6 54 -43 72t-128 8t-175 -44t-181 -86t-147 -117t-74 -137z" />
<glyph unicode="&#xa8;" horiz-adv-x="950" d="M166 1578q0 10 19 25t43 27q26 14 62 30q52 0 71 -22t19 -62q0 -30 -15 -47t-38 -25t-50 -10t-51 -2q-32 0 -46 19t-14 67zM526 1578q0 10 19 25t43 27q28 14 64 30q52 0 71 -22t19 -62q0 -30 -15 -47t-38 -25t-51 -10t-52 -2q-32 0 -46 19t-14 67z" />
<glyph unicode="&#xa9;" horiz-adv-x="1616" d="M96 476q6 102 33 221t73 237t111 227t151 193t192 134t234 50q168 0 290 -65t202 -171t118 -243t38 -283q0 -190 -63 -335t-177 -244t-271 -150t-345 -51q-92 0 -198 28t-195 86t-145 149t-48 217zM242 458q0 -106 42 -172t111 -103t154 -50t173 -13q344 0 518 178 t174 504q6 304 -146 465t-440 145q-82 14 -157 -37t-140 -139t-118 -201t-91 -223t-59 -205t-21 -149zM410 616q-4 80 19 160t66 153t101 135t122 105t129 65t125 14q24 0 45 -4t38 -18t27 -41t10 -71t-26 -74l-46 -52q-6 52 -18 86t-52 34q-66 -22 -145 -63t-145 -100 t-106 -134t-30 -161q0 -78 19 -125t51 -72t73 -34t83 -9q64 0 125 29t120 65t115 65t110 29q20 0 37 -11t9 -61q-6 -32 -40 -63t-85 -59t-112 -53t-117 -42t-102 -27t-68 -10q-50 0 -108 17t-108 57t-83 106t-33 164z" />
<glyph unicode="&#xaa;" horiz-adv-x="638" d="M480.195 796.41q-25.5312 -48.7852 -58.9854 -88.3545q-33.4541 -39.5703 -73.5107 -67.2148t-87.1572 -40.6543q-33.4541 -9.21484 -69.1084 -9.21484q-14.9668 0 -29.9336 1.62598q-18.4873 0 -39.6162 5.4209t-39.1768 17.3457q-18.0469 11.9248 -29.4922 31.4395 q-11.4453 19.5137 -11.4453 48.7842q-3.96094 24.9346 -3.96094 50.4111q0 35.7754 7.92285 72.6348q13.6455 62.3369 42.6982 120.336q29.0527 58 71.3105 107.327q42.2578 49.3262 90.2373 83.4756q47.9805 34.1494 98.6016 49.3271q29.4932 8.67285 58.1045 8.67285 q20.249 0 40.0566 -4.33691q36.0957 0 56.3438 -29.2705q20.249 -29.2705 30.373 -78.0557q10.125 -48.7852 12.7656 -112.205t4.40234 -130.635q1.75977 -67.2148 4.8418 -132.803q3.08105 -65.5889 13.6455 -119.794h-65.1475q-4.40234 36.8594 -6.60254 65.0459 l-3.96191 52.5801q-1.76074 24.3916 -4.8418 47.1582q-3.08203 22.7666 -8.36328 50.9531zM413.287 1085.87q-6.16309 0.541992 -12.7656 0.541992q-28.6123 0 -58.1045 -11.9248q-36.5361 -14.6357 -70.4297 -41.1963q-33.8945 -26.5605 -63.3867 -62.8779 q-29.4932 -36.3174 -51.502 -75.3457q-22.0088 -39.0273 -33.8945 -77.5137q-10.124 -32.5225 -10.124 -60.71q0 -5.41992 0.44043 -10.2988q2.2002 -32.5234 19.8076 -55.2891q17.6074 -22.7666 54.584 -30.3555q52.8223 1.08398 101.683 33.0654t87.1562 79.1396 q38.2959 47.1592 63.8271 101.906t33.0137 101.364q2.6416 16.2607 2.6416 30.3545q0 27.1025 -9.24414 47.7012q-14.0859 31.4385 -53.7021 31.4385z" />
<glyph unicode="&#xab;" horiz-adv-x="1794" d="M210 572l187 148l218 172l213 161q102 75 174 115q18 -2 30 -18t19 -38t6 -45t-9 -37l-588 -448l107 -51l155 -75l179 -92q93 -50 177 -106q-4 -4 -11 -21t-16 -36l-17 -36q-8 -17 -12 -17q-48 30 -119 58l-153 58l-167 63q-85 33 -159 70t-131 80t-83 95zM794 628 l187 148l218 172l213 161q102 75 174 115q18 -2 30 -18t19 -38t6 -45t-9 -37l-588 -448l107 -51l155 -75l179 -92q93 -50 177 -106q-4 -4 -11 -21t-16 -36l-17 -36q-8 -17 -12 -17q-48 30 -119 58l-153 58l-167 63q-85 33 -159 70t-131 80t-83 95z" />
<glyph unicode="&#xac;" horiz-adv-x="1534" d="M1432 302q-74 -8 -106 1t-41 49t-4 119t5 211l-1104 -18l8 164q148 -6 320 8l343 27q171 13 330 16t285 -27q-8 -84 -10 -134t-2 -84v-59q0 -25 -1 -58t-7 -83z" />
<glyph unicode="&#xad;" horiz-adv-x="794" d="M74 604q0 34 29 47t59 17q114 16 223 35t227 31q50 0 85 -17t46 -40t-3 -48t-60 -39l-480 -50q-16 0 -38 2t-41 9t-33 19t-14 34z" />
<glyph unicode="&#xae;" horiz-adv-x="1616" d="M96 476q6 102 33 221t73 237t111 227t151 193t192 134t234 50q168 0 290 -65t202 -171t118 -243t38 -283q0 -190 -63 -335t-177 -244t-271 -150t-345 -51q-92 0 -198 28t-195 86t-145 149t-48 217zM632 410q0 -10 -8 -15t-18 -6t-19 -1h-13q-42 0 -51 55t-7 151t4 226 t-16 280q12 20 26 22t26 -6t23 -20t17 -20q32 28 89 43t123 19t135 -3t126 -23t95 -38t42 -51t-34 -62t-132 -69q-22 -10 -77 -27l-115 -37l-112 -38q-52 -18 -70 -30q0 -8 14 -15l74 -37l184 -93l344 -179l20 -15q12 -9 18 -19q94 160 94 400q6 304 -146 465t-440 145 q-82 14 -157 -37t-140 -139t-118 -201t-91 -223t-59 -205t-21 -149q0 -106 42 -172t111 -103t154 -50t173 -13q396 0 570 238q-16 -4 -31 -3t-25 1q-24 0 -93 42l-158 98q-89 56 -184 110t-169 78v-274zM612 1002q-10 -12 -12 -35t2 -47t12 -45t18 -31q14 -4 66 8t117 33 t130 47t104 52t41 47t-58 31h-97q-63 0 -128 -4t-120 -17t-75 -39z" />
<glyph unicode="&#xaf;" horiz-adv-x="794" d="M74 1398q0 34 29 47t59 17q114 16 223 35t227 31q50 0 85 -17t46 -40t-3 -48t-60 -39l-480 -50q-16 0 -38 2t-41 9t-33 19t-14 34z" />
<glyph unicode="&#xb0;" horiz-adv-x="562" d="M62 876q0 84 30 133t76 69t100 14t102 -34t82 -73t40 -101q0 -126 -52 -167t-154 -41q-32 0 -71 12t-73 37t-57 63t-23 88zM374 926q-42 46 -90 56t-82 -9t-42 -62t30 -105q46 -38 89 -42t71 16t37 59t-13 87z" />
<glyph unicode="&#xb1;" horiz-adv-x="1342" d="M178 52q0 34 29 47t59 17q46 6 138 21t202 35q-4 54 -10 118t-15 130t-23 130t-32 116q-52 0 -103 -13t-102 -28t-104 -29t-109 -16q-30 0 -46 36t-16 74l480 100v414q0 18 10 27t24 14t29 6t23 1q44 0 57 -15t23 -73q4 -18 11 -66l14 -101q7 -53 12 -100l7 -65l466 54 q0 -58 -5 -85t-47 -42t-139 -29t-279 -46q-10 -52 -4 -111t16 -121l21 -125q11 -63 13 -123q120 22 223 38t155 22q50 0 85 -17t46 -40t-3 -48t-60 -39l-920 -132q-16 0 -38 2t-41 9t-33 19t-14 34z" />
<glyph unicode="&#xb2;" horiz-adv-x="960" d="M59.9648 875.171q52.4688 38.8926 117.432 98.2822q64.9609 59.3906 126.176 126.138q61.2139 66.748 109.936 134.547q48.7207 67.7998 68.085 125.612q19.3633 57.8135 1.87402 98.2822q-17.4902 40.4697 -88.6982 53.083q-44.9736 0 -79.3281 -11.0371 q-34.3555 -11.0371 -62.4639 -27.8555t-52.4688 -36.79q-24.3613 -19.9717 -50.5957 -36.79t-56.2168 -27.8555t-68.71 -11.0371q1.24902 43.0977 41.8506 84.0918q40.6016 40.9951 99.9414 72.5293t129.299 48.8779q69.959 17.3447 131.798 12.0889t105.563 -36.79 q43.7246 -31.5352 51.2197 -97.7568q0 -72.5293 -29.3574 -144.008q-29.3584 -71.4775 -74.9561 -138.751q-45.5986 -67.2734 -102.44 -128.24l-110.56 -113.523q72.457 -5.25586 145.539 11.5625t144.291 38.8926q71.208 22.0732 141.791 41.5195 q70.584 19.4463 140.543 19.4463q18.7393 0 35.6045 -7.35742q16.8643 -7.3584 16.8643 -27.3301t-16.2402 -33.6367t-41.2256 -22.0742t-54.3428 -12.0879q-29.3584 -3.67969 -55.5928 -5.78125q-26.2344 -2.10254 -45.5986 -2.10254q-19.3633 0 -23.1113 -1.05078 q-13.7422 -2.10254 -49.3457 -11.0371l-83.7012 -20.498q-48.0967 -11.5625 -103.689 -23.6504q-55.5918 -12.0879 -111.185 -21.5488q-55.5928 -9.45996 -105.563 -14.7158t-84.9492 -3.15332q-34.9805 2.10254 -51.8447 14.1904q-16.8652 12.0879 -5.62207 37.3154z" />
<glyph unicode="&#xb3;" horiz-adv-x="840" d="M247.223 783.62q84.9023 20.6836 154.259 54.5801q69.3564 33.8975 119.58 74.1133q50.2236 40.2168 80.1182 81.583q29.8955 41.3652 35.2764 75.8369q5.38184 34.4717 -14.3496 58.0273q-19.7305 23.5547 -69.3564 27.002q-49.625 3.44727 -130.342 -16.6611 t-195.514 -72.9648l-52.6152 64.3477l71.748 33.3223q43.0488 19.5332 90.8809 43.6631l96.2617 50.5586q48.4297 26.4277 89.0879 52.8564q40.6562 26.4277 68.7578 51.707t34.6787 45.9619t-12.5557 36.1943q-19.1328 15.5127 -71.748 23.5557 q-65.7695 0 -127.951 -13.2139t-123.766 -28.7266q-61.584 -15.5117 -123.167 -28.1514q-61.584 -12.6396 -124.962 -12.6396q0 8.04395 0.598633 19.5342q0.597656 11.4902 3.58691 23.5557q2.99023 12.0645 9.56641 21.832q6.57715 9.7666 19.7305 14.3623 l133.332 31.5996q69.9551 16.6611 139.909 30.4492q69.9541 13.7891 135.724 21.2578q65.7686 7.46875 119.58 4.02148q53.8105 -3.44727 91.4785 -21.2578q37.668 -17.8096 52.0176 -53.4307q0 -37.918 -22.7207 -73.5391q-22.7207 -35.6201 -55.0068 -67.7939 q-32.2861 -32.1729 -67.5625 -60.3242q-35.2764 -28.1523 -60.3877 -49.9844q98.0547 -1.14844 150.67 -24.1299q52.6152 -22.9805 68.1611 -58.6016q15.5459 -35.6201 0.597656 -81.0078q-14.9473 -45.3867 -50.8213 -91.3486t-87.293 -89.0518 q-51.4199 -43.0889 -108.221 -75.2627q-56.8008 -32.1729 -114.199 -48.834t-104.034 -9.76758q-16.7412 0 -32.8848 8.04395q-16.1436 8.04297 -16.1436 28.7256z" />
<glyph unicode="&#xb4;" horiz-adv-x="440" d="M234 1512q26 32 50 42t40 3t26 -26t10 -41q-6 -24 -15 -43t-31 -45t-64 -63l-110 -93l-78 70z" />
<glyph unicode="&#xb5;" horiz-adv-x="1256" d="M1116 8q-14 -64 -43 -73t-81 21q-4 2 -5 26t-1 49t-1 45t-5 18q-88 -70 -203 -81t-222 15t-191 74t-112 96q-2 -54 1 -110t5 -110t1 -102t-13 -82q-14 -40 -46 -58t-94 0q4 22 1 103t-9 197t-11 254t-5 273t8 255t28 200q22 84 61 95t103 -47q-2 -94 -10 -173t-14 -156 t-4 -158t20 -179q32 -52 93 -95t133 -73t149 -42t144 -2t116 48t65 108q18 112 18 206t-8 172t-18 139t-9 105t18 71t61 39q32 -34 54 -109t35 -174t17 -212t2 -221t-9 -201t-19 -151z" />
<glyph unicode="&#xb6;" horiz-adv-x="970" d="M874 -2q-4 0 -34 2t-66 4q-4 0 -4 78t2 196t5 254t6 254t3 196t-4 78q-10 0 -15 2t-13 2q-6 0 -10 -78t-6 -196t-4 -255t-3 -255t-2 -196l-1 -78q-16 0 -40 -2t-47 5t-38 28t-13 63q2 18 4 54t3 81l2 93l2 92q1 44 1 79t2 51q-234 46 -365 127t-172 169t0 171t153 133 t288 54t404 -66z" />
<glyph unicode="&#xb7;" horiz-adv-x="360" d="M38 600q12 60 46 83t70 18t66 -33t34 -70q0 -60 -24 -79t-74 -19q-16 0 -36 7t-38 19t-31 31t-13 43z" />
<glyph unicode="&#xb8;" horiz-adv-x="682" d="M108 -460q80 -8 159 6t138 37t89 51t15 50t-87 31t-216 -3q-30 0 -47 30t-26 72t-11 88t-2 80q-8 70 9 83t39 0t38 -38t6 -33q0 -34 -1 -65t3 -55t15 -38t33 -14q116 12 191 -3t113 -48t44 -78t-16 -91t-67 -87t-108 -67t-141 -30t-164 24q-6 0 -6 13t1 30l2 33 q1 16 -3 22z" />
<glyph unicode="&#xb9;" horiz-adv-x="288" d="M101.434 1372.03q-3.10645 29.1377 16.3105 36.9424t45.8232 7.80469q21.7471 0 40.3877 -3.12109q18.6396 -3.12207 26.4062 -20.8135l-32.6201 -668.097q-1.55371 -12.4883 -17.8633 -21.8535q-16.3105 -9.36621 -36.5039 -13.0088q-20.1934 -3.6416 -41.1631 -1.04004 q-20.9707 2.60156 -31.8438 11.9668q1.55273 24.9766 3.88281 78.0488l5.4375 119.154l6.21289 138.927l6.21387 138.927l5.43652 118.635q2.33008 52.5527 3.88281 77.5283z" />
<glyph unicode="&#xba;" horiz-adv-x="696" d="M55.2715 949.147q0 86.8945 32.8271 148.887q32.8271 61.9912 82.9795 103.319t109.424 63.0518t113.071 28.082q7.75098 0.530273 15.0459 0.530273q43.7695 0 82.5234 -15.8955q45.5938 -18.5449 78.4209 -52.4551t50.6084 -80.5361q14.1338 -37.0898 14.1338 -77.3574 q0 -10.5977 -0.912109 -21.1943q0 -86.8945 -29.6357 -152.065q-29.6348 -65.1719 -78.876 -109.148q-49.2412 -43.9775 -114.439 -65.7012t-136.323 -21.7236q-107.601 0 -163.225 58.2832q-55.623 58.2832 -55.623 193.924zM133.691 917.356q0 -44.5068 9.5752 -70.999 q9.57422 -26.4932 28.2676 -39.7393t45.5928 -17.4844q26.9004 -4.23926 62.4629 -4.23926q54.7119 0 105.776 12.1865t90.2744 41.3281q39.2109 29.1416 62.9189 77.3574q23.709 48.2158 23.709 120.275q0 37.0889 -9.11914 70.4697q-9.11816 33.3799 -27.3555 58.2832 q-18.2373 24.9023 -44.6816 39.7383t-60.1826 14.8359q-44.6816 -8.47852 -89.3633 -19.6045q-44.6816 -11.127 -83.8916 -40.2686t-69.3018 -85.835t-44.6816 -156.305z" />
<glyph unicode="&#xbb;" horiz-adv-x="1674" d="M294 120q-84 32 -110 67t-11 71t63 74t112 78l136 81q72 41 135 82t109 84t58 85l-662 248l126 122q82 -58 155 -92t140 -54t131 -33t128 -30t128 -46t134 -79q-64 -78 -163 -157l-208 -161l-215 -167q-106 -85 -186 -173zM862 190q-84 32 -110 67t-11 71t63 74t112 78 l136 81q72 41 135 82t109 84t58 85l-662 248l126 122q82 -58 155 -92t140 -54t131 -33t128 -30t128 -46t134 -79q-64 -78 -163 -157l-208 -161l-215 -167q-106 -85 -186 -173z" />
<glyph unicode="&#xbc;" horiz-adv-x="1588" d="M227.961 1418.9q-2.83398 26.3115 14.8838 33.3594q17.7188 7.04785 41.8154 7.04785q19.8457 0 36.8555 -2.81934q17.0098 -2.81836 24.0967 -18.7939l-29.7666 -603.285q-1.41797 -11.2764 -16.3018 -19.7334q-14.8838 -8.45801 -33.3105 -11.7471 q-18.4268 -3.28809 -37.5635 -0.939453q-19.1357 2.34961 -29.0586 10.8066q1.41797 22.5527 3.54395 70.4775l4.96191 107.595l5.66992 125.45l5.66992 125.449l4.96094 107.126q2.12598 47.4541 3.54297 70.0068zM32 84q4 16 49 92l117 189l163 254l186 286l186 284 l165 250l121 182q47 71 55 81q20 -12 4 -78t-60 -171t-111 -238t-148 -277t-171 -289t-180 -274t-175 -232t-155 -163q-18 0 -28 13t-14 31t-4 35v25zM1074.13 376.585h-109.933q-46.7666 0 -91.1035 0.566406q-44.3379 0.567383 -91.1045 0.567383h-109.933 q-9.7168 0 -20.042 1.13281q-10.3252 1.13379 -19.4355 4.53516q-9.11035 3.40039 -14.5771 10.2012q-5.46582 6.80176 -5.46582 19.2705l119.042 146.228l112.362 138.859q54.0547 65.1787 102.644 116.188q48.5889 51.0098 89.8896 77.082 q41.3008 26.0713 73.4902 22.1035q32.1904 -3.9668 54.0557 -48.1758q21.8652 -44.208 30.9756 -133.758q9.11035 -89.5508 4.25098 -235.777l335.264 4.53418q0 -5.66797 -1.21484 -17.5703t-4.85938 -23.8047q-3.64355 -11.9014 -8.50293 -20.9697 q-4.8584 -9.06836 -12.1475 -10.2021l-281.814 -21.5381q-10.9326 -27.2051 -17.0068 -66.8789q-6.07324 -39.6738 -9.71777 -83.3154q-3.64355 -43.6416 -4.8584 -86.7158q-1.21484 -43.0752 -1.21484 -78.2148q-9.71777 0 -29.1533 -3.96777 q-19.4355 -3.9668 -39.4785 -6.80078t-36.4414 -0.567383q-16.3994 2.26758 -20.043 15.8701zM1074.13 782.395q-32.7979 -41.9414 -80.7793 -82.1826l-93.5332 -80.4814q-45.5518 -40.2412 -81.9932 -81.6152q-36.4424 -41.375 -46.1602 -85.583 q72.8838 -1.13379 147.589 7.36816t154.877 16.4365v306.058z" />
<glyph unicode="&#xbd;" horiz-adv-x="1660" d="M100.366 1374.63q-3.06738 26.4688 16.1064 33.5586t45.251 7.08984q21.4756 0 39.8828 -2.83594t26.0771 -18.9062l-32.2129 -606.891q-1.53418 -11.3438 -17.6406 -19.8516t-36.0469 -11.8164q-19.9414 -3.30859 -40.6494 -0.945312t-31.4463 10.8711 q1.53418 22.6875 3.83496 70.8984l5.36914 108.238l6.13574 126.199l6.13574 126.199l5.36816 107.766q2.30078 47.7383 3.83496 70.4258zM58 104q4 16 49 92l117 189l163 254l186 286l186 284l165 250l121 182q47 71 55 81q20 -12 4 -78t-60 -171t-111 -238t-148 -277 t-171 -289t-180 -274t-175 -232t-155 -163q-18 0 -28 13t-14 31t-4 35v25zM786.504 111.398q52.9414 43.8018 118.486 110.688q65.5469 66.8867 127.311 142.061q61.7646 75.1738 110.924 151.531q49.1602 76.3574 68.6973 141.469q19.5381 65.1104 1.89062 110.688 q-17.6465 45.5781 -89.4951 59.7842q-45.3779 0 -80.042 -12.4307q-34.6631 -12.4297 -63.0244 -31.3711t-52.9414 -41.4346q-24.5791 -22.4932 -51.0498 -41.4346t-56.7227 -31.3721q-30.252 -12.4297 -69.3271 -12.4297q1.26074 48.5371 42.2266 94.707 q40.9658 46.1689 100.84 81.6846t130.462 55.0488t132.982 13.6133q62.3945 -5.91895 106.512 -41.4336q44.1172 -35.5156 51.6807 -110.098q0 -81.6846 -29.6221 -162.186q-29.6211 -80.501 -75.6299 -156.267q-46.0078 -75.7656 -103.36 -144.428l-111.555 -127.854 q73.1094 -5.91992 146.849 13.0215t145.587 43.8027q71.8486 24.8604 143.067 46.7617q71.2178 21.9004 141.806 21.9004q18.9072 0 35.9238 -8.28711q17.0176 -8.28613 17.0176 -30.7793t-16.3867 -37.8828t-41.5967 -24.8604t-54.832 -13.6143 q-29.6211 -4.14355 -56.0918 -6.51172q-26.4707 -2.36719 -46.0078 -2.36719q-19.5381 0 -23.3193 -1.18359q-13.8652 -2.36816 -49.79 -12.4307l-84.4531 -23.085q-48.5293 -13.0215 -104.621 -26.6357q-56.0928 -13.6143 -112.185 -24.2686 q-56.0918 -10.6553 -106.512 -16.5742t-85.7148 -3.55176q-35.293 2.36816 -52.3105 15.9824q-17.0166 13.6143 -5.67188 42.0264z" />
<glyph unicode="&#xbe;" horiz-adv-x="2208" d="M268.473 622.201q99.9648 22.1816 181.627 58.5342q81.6611 36.3525 140.795 79.4834q59.1348 43.1309 94.334 87.4932q35.1992 44.3633 41.5342 81.332q6.33594 36.9688 -16.8955 62.2314q-23.2305 25.2617 -81.6611 28.959q-58.4307 3.69629 -153.468 -17.8682 q-95.0371 -21.5654 -230.201 -78.251l-61.9502 69.0078l84.4775 35.7373q50.6865 20.9492 107.005 46.8271l113.341 54.2217q57.0225 28.3428 104.893 56.6855q47.8711 28.3428 80.958 55.4531t40.8311 49.292q7.74316 22.1816 -14.7842 38.8174 q-22.5273 16.6367 -84.4775 25.2627q-77.4375 0 -150.651 -14.1719q-73.2139 -14.1709 -145.724 -30.8076q-72.5098 -16.6357 -145.02 -30.1914q-72.5098 -13.5547 -147.132 -13.5547q0 8.62598 0.704102 20.9492q0.703125 12.3223 4.22363 25.2617 q3.51953 12.9395 11.2637 23.4141q7.74316 10.4746 23.2314 15.4033l156.987 33.8887q82.3652 17.8682 164.731 32.6553q82.3652 14.7881 159.803 22.7979t140.796 4.31348q63.3584 -3.69727 107.709 -22.7979t61.2461 -57.3018q0 -40.666 -26.751 -78.8672 t-64.7656 -72.7061q-38.0156 -34.5039 -79.5498 -64.6953q-41.5352 -30.1914 -71.1025 -53.6055q115.453 -1.23242 177.403 -25.8779q61.9502 -24.6465 80.2529 -62.8477q18.3037 -38.2012 0.704102 -86.877q-17.5986 -48.6758 -59.8379 -97.9678t-102.781 -95.5029 q-60.542 -46.2119 -127.42 -80.7158q-66.8779 -34.5049 -134.46 -52.373t-122.492 -10.4746q-19.7119 0 -38.7197 8.62598q-19.0068 8.62598 -19.0068 30.8076zM504 54q4 16 49 92l117 189l163 254l186 286l186 284l165 250l121 182q47 71 55 81q20 -12 4 -78t-60 -171 t-111 -238t-148 -277t-171 -289t-180 -274t-175 -232t-155 -163q-18 0 -28 13t-14 31t-4 35v25zM1636.54 405.488h-119.234q-50.7236 0 -98.8125 0.642578t-98.8135 0.642578h-119.233q-10.541 0 -21.7393 1.28516q-11.1992 1.28418 -21.0801 5.13867 q-9.88184 3.85449 -15.8105 11.5635t-5.92871 21.8408l129.116 165.738l121.869 157.387q58.6289 73.876 111.329 131.691t97.4951 87.3652q44.7949 29.5508 79.709 25.0537t58.6289 -54.6035t33.5967 -151.605q9.88086 -101.498 4.61133 -267.236l363.631 5.13965 q0 -6.42383 -1.31738 -19.915q-1.31738 -13.4902 -5.26953 -26.9805q-3.95312 -13.4902 -9.22266 -23.7686q-5.27051 -10.2783 -13.1748 -11.5625l-305.662 -24.4111q-11.8574 -30.835 -18.4443 -75.8027q-6.58789 -44.9678 -10.54 -94.4326 q-3.95312 -49.4639 -5.27051 -98.2861t-1.31738 -88.6504q-10.54 0 -31.6201 -4.49707q-21.0801 -4.49609 -42.8184 -7.70801q-21.7393 -3.21191 -39.5254 -0.642578t-21.7393 17.9873zM1636.54 865.443q-35.5723 -47.5371 -87.6143 -93.1475l-101.448 -91.2197 q-49.4062 -45.6104 -88.9316 -92.5049q-39.5244 -46.8945 -50.0645 -97.002q79.0498 -1.28418 160.076 8.35156q81.0273 9.63574 167.982 18.6299v346.893z" />
<glyph unicode="&#xbf;" horiz-adv-x="1294" d="M621.213 1485.19q0 -74.5469 89.0469 -74.5469q36.4287 -8.66797 59.7021 1.7334q23.2744 10.4014 35.417 29.4717t12.1426 44.208t-12.1426 44.208t-36.4287 29.4717q-24.2861 10.4023 -58.6904 1.7334q-89.0469 0 -89.0469 -76.2793zM329.785 819.469 q44.5234 -22.5381 120.416 -57.2109l161.904 -77.1465q86.0117 -42.4746 175.059 -91.0166q89.0479 -48.542 159.881 -98.8174t114.345 -99.6846t38.4521 -93.6172t-65.7734 -82.3477t-198.333 -65.8779q-91.0713 0 -178.095 11.2686t-173.035 26.0039 q-86.0117 14.7363 -172.023 26.0049t-173.035 11.2686q-14.166 0 -30.3564 -9.53516q-16.1904 -9.53418 -31.3691 -23.4033t-27.3213 -32.0732q-12.1426 -18.2031 -16.1904 -33.8057q194.285 -53.7432 375.415 -73.6797q181.131 -19.9375 333.928 -10.4023 q152.798 9.53516 270.178 45.0752q117.381 35.54 182.143 91.8828q64.7617 56.3438 69.8213 130.023t-62.7383 158.628q-67.7969 84.9492 -218.57 178.565t-399.701 188.967l291.428 71.0791v50.2764q-22.2617 1.7334 -77.917 4.33398q-55.6543 2.60059 -124.464 1.7334 q-68.8086 -0.867188 -139.642 -6.93457q-70.834 -6.06738 -123.452 -22.5371q-52.6191 -16.4697 -77.917 -44.208q-25.2969 -27.7383 -3.03516 -72.8125z" />
<glyph unicode="&#xc0;" horiz-adv-x="1640" d="M194 20q-8 -10 -33 -8t-51 12t-45 23q-16 11 -16 19q0 22 11.5 53t29.5 68t23 51l96 257l112 301l112 301l95 256l62 169q16 46 22 85t19 67t40 43t85 15q72 -42 120 -99t84 -124t63 -141l54 -148q27 -74 58 -146t77 -134q16 -24 47 -32t68 -9h19q28 0 57 2q17 1 32 1 q21 0 39 -2q32 -4 53 -17t21 -45q3 -14 3 -26q0 -23 -11 -36q-16 -20 -45 -27q-25 -6 -57 -6h-9q-37 1 -68 3t-51 1t-16 -13l53 -164q29 -90 65 -180t78 -174t92 -144q-10 -12 -36 -35t-53 -44t-50 -35q-16 -10 -23 -10q-3 0 -4 2l-352 744l-682 -168l-27 -105 q-17 -65 -40 -138t-53 -144t-68 -119zM734 1442q-12 -90 -45 -187t-74 -192l-83 -184l-74 -163q72 0 144 15t140 38t132 49l122 48q-6 28 -18 77t-29 106t-38 119t-48 116t-59 96t-70 62zM894 1970l-42 -108l-102 72q-38 28 -60 50t-34 41t-20 45q-4 26 -1 50t15 37t31 10 t45 -33z" />
<glyph unicode="&#xc1;" horiz-adv-x="1640" d="M208 34q-8 -10 -33 -8t-51 12t-45 23q-16 11 -16 19q0 22 11.5 53t29.5 68t23 51l96 257l112 301l112 301l95 256l62 169q16 46 22 85t19 67t40 43t85 15q72 -42 120 -99t84 -124t63 -141l54 -148q27 -74 58 -146t77 -134q16 -24 47 -32t68 -9h19q28 0 57 2q17 1 32 1 q21 0 39 -2q32 -4 53 -17t21 -45q3 -14 3 -26q0 -23 -11 -36q-16 -20 -45 -27q-25 -6 -57 -6h-9q-37 1 -68 3t-51 1t-16 -13l53 -164q29 -90 65 -180t78 -174t92 -144q-10 -12 -36 -35t-53 -44t-50 -35q-16 -10 -23 -10q-3 0 -4 2l-352 744l-682 -168l-27 -105 q-17 -65 -40 -138t-53 -144t-68 -119zM748 1456q-12 -90 -45 -187t-74 -192l-83 -184l-74 -163q72 0 144 15t140 38t132 49l122 48q-6 28 -18 77t-29 106t-38 119t-48 116t-59 96t-70 62zM686 2150q26 32 50 42t40 3t26 -26t10 -41q-6 -24 -15 -43t-31 -45t-64 -63l-110 -93 l-78 70z" />
<glyph unicode="&#xc2;" horiz-adv-x="1640" d="M208 34q-8 -10 -33 -8t-51 12t-45 23q-16 11 -16 19q0 22 11.5 53t29.5 68t23 51l96 257l112 301l112 301l95 256l62 169q16 46 22 85t19 67t40 43t85 15q72 -42 120 -99t84 -124t63 -141l54 -148q27 -74 58 -146t77 -134q16 -24 47 -32t68 -9h19q28 0 57 2q17 1 32 1 q21 0 39 -2q32 -4 53 -17t21 -45q3 -14 3 -26q0 -23 -11 -36q-16 -20 -45 -27q-25 -6 -57 -6h-9q-37 1 -68 3t-51 1t-16 -13l53 -164q29 -90 65 -180t78 -174t92 -144q-10 -12 -36 -35t-53 -44t-50 -35q-16 -10 -23 -10q-3 0 -4 2l-352 744l-682 -168l-27 -105 q-17 -65 -40 -138t-53 -144t-68 -119zM748 1456q-12 -90 -45 -187t-74 -192l-83 -184l-74 -163q72 0 144 15t140 38t132 49l122 48q-6 28 -18 77t-29 106t-38 119t-48 116t-59 96t-70 62zM394 1778q0 30 26 76t74 95t115 98t147 85l95 -61q41 -27 77 -60t73 -79t83 -120 q16 -30 17 -56t-11 -42t-35 -18t-55 16l-56 40l-32 23q-12 9 -21 19t-26 27l-46 47l-81 82q-54 -38 -93 -70t-67 -63t-47 -62t-33 -67q-46 0 -75 13t-29 77z" />
<glyph unicode="&#xc3;" horiz-adv-x="1640" d="M208 34q-8 -10 -33 -8t-51 12t-45 23q-16 11 -16 19q0 22 11.5 53t29.5 68t23 51l96 257l112 301l112 301l95 256l62 169q16 46 22 85t19 67t40 43t85 15q72 -42 120 -99t84 -124t63 -141l54 -148q27 -74 58 -146t77 -134q16 -24 47 -32t68 -9h19q28 0 57 2q17 1 32 1 q21 0 39 -2q32 -4 53 -17t21 -45q3 -14 3 -26q0 -23 -11 -36q-16 -20 -45 -27q-25 -6 -57 -6h-9q-37 1 -68 3t-51 1t-16 -13l53 -164q29 -90 65 -180t78 -174t92 -144q-10 -12 -36 -35t-53 -44t-50 -35q-16 -10 -23 -10q-3 0 -4 2l-352 744l-682 -168l-27 -105 q-17 -65 -40 -138t-53 -144t-68 -119zM748 1456q-12 -90 -45 -187t-74 -192l-83 -184l-74 -163q72 0 144 15t140 38t132 49l122 48q-6 28 -18 77t-29 106t-38 119t-48 116t-59 96t-70 62zM792 1892q-50 44 -88 74t-77 27t-86 -48t-119 -151q-8 0 -22 2t-28 8t-26 16t-16 26 q38 120 113 212t159 126q34 14 65 2t62 -37t60 -58t60 -63t64 -50t69 -20q56 0 87 17t57 50t57 81t87 108q16 0 32 -27t16 -47q10 -56 -12 -110t-65 -98t-102 -74t-121 -39t-121 7t-105 66z" />
<glyph unicode="&#xc4;" horiz-adv-x="1640" d="M208 34q-8 -10 -33 -8t-51 12t-45 23q-16 11 -16 19q0 22 11.5 53t29.5 68t23 51l96 257l112 301l112 301l95 256l62 169q16 46 22 85t19 67t40 43t85 15q72 -42 120 -99t84 -124t63 -141l54 -148q27 -74 58 -146t77 -134q16 -24 47 -32t68 -9h19q28 0 57 2q17 1 32 1 q21 0 39 -2q32 -4 53 -17t21 -45q3 -14 3 -26q0 -23 -11 -36q-16 -20 -45 -27q-25 -6 -57 -6h-9q-37 1 -68 3t-51 1t-16 -13l53 -164q29 -90 65 -180t78 -174t92 -144q-10 -12 -36 -35t-53 -44t-50 -35q-16 -10 -23 -10q-3 0 -4 2l-352 744l-682 -168l-27 -105 q-17 -65 -40 -138t-53 -144t-68 -119zM748 1456q-12 -90 -45 -187t-74 -192l-83 -184l-74 -163q72 0 144 15t140 38t132 49l122 48q-6 28 -18 77t-29 106t-38 119t-48 116t-59 96t-70 62zM516 1956q0 10 19 25t43 27q26 14 62 30q52 0 71 -22t19 -62q0 -30 -15 -47t-38 -25 t-50 -10t-51 -2q-32 0 -46 19t-14 67zM876 1956q0 10 19 25t43 27q28 14 64 30q52 0 71 -22t19 -62q0 -30 -15 -47t-38 -25t-51 -10t-52 -2q-32 0 -46 19t-14 67z" />
<glyph unicode="&#xc5;" horiz-adv-x="1640" d="M208 34q-8 -10 -33 -8t-51 12t-45 23q-16 11 -16 19q0 22 11.5 53t29.5 68t23 51l96 257l112 301l112 301l95 256l62 169q16 46 22 85t19 67t40 43t85 15q72 -42 120 -99t84 -124t63 -141l54 -148q27 -74 58 -146t77 -134q16 -24 47 -32t68 -9h19q28 0 57 2q17 1 32 1 q21 0 39 -2q32 -4 53 -17t21 -45q3 -14 3 -26q0 -23 -11 -36q-16 -20 -45 -27q-25 -6 -57 -6h-9q-37 1 -68 3t-51 1t-16 -13l53 -164q29 -90 65 -180t78 -174t92 -144q-10 -12 -36 -35t-53 -44t-50 -35q-16 -10 -23 -10q-3 0 -4 2l-352 744l-682 -168l-27 -105 q-17 -65 -40 -138t-53 -144t-68 -119zM748 1456q-12 -90 -45 -187t-74 -192l-83 -184l-74 -163q72 0 144 15t140 38t132 49l122 48q-6 28 -18 77t-29 106t-38 119t-48 116t-59 96t-70 62zM508 1872q0 84 30 133t76 69t100 14t102 -34t82 -73t40 -101q0 -126 -52 -167 t-154 -41q-32 0 -71 12t-73 37t-57 63t-23 88zM820 1922q-42 46 -90 56t-82 -9t-42 -62t30 -105q46 -38 89 -42t71 16t37 59t-13 87z" />
<glyph unicode="&#xc6;" horiz-adv-x="2244" d="M992 8q-32 4 -56 9t-28 9l-62 604l-440 -64l-27 -105q-17 -65 -40 -138t-53 -144t-68 -119q-8 -10 -31 -8t-48 11t-45 22t-20 25q-2 46 25 145t71 228t100 274t114 280t111 246t93 175q52 116 112 173t117 67t106 -19t79 -83q52 -14 130 -19t167 -6t183 0t182 -2t162 -12 t124 -27v-124q-68 -10 -157 -7t-189 6t-206 0t-206 -25q-18 -82 -26 -137t-11 -96t-2 -77t4 -77t6 -95t3 -132q128 0 220 9t177 21t177 21t218 9v-136l-774 -94l14 -410q124 0 219 3t173 8t146 10l137 10q69 5 148 8t179 3q12 -6 9 -24t-20 -41t-49 -44t-78 -33 q-276 -30 -552 -48t-518 -38v8zM854 1466l-117 -181q-59 -93 -110 -186t-89 -181t-56 -162q72 0 120 6t88 14t82 15t100 11q-10 42 -7 110l7 155q4 87 3 188t-21 211z" />
<glyph unicode="&#xc7;" horiz-adv-x="1812" d="M54 624q0 206 74 394t203 331t304 228t379 85q82 0 137 -9t89 -38t49 -83t15 -144q-116 116 -243 145q-58 13 -114 13q-68 0 -134 -19q-121 -35 -228 -124t-184 -208t-116 -258q-29 -102 -29 -202q0 -36 4 -71q0 -126 45 -221t122 -157t181 -93t222 -31q148 12 260 50 t205 92t178 117t179 123q18 0 37 -2t35 -8t26 -19t10 -37q-100 -88 -216 -176t-245 -157t-270 -110q-128 -37 -263 -37h-26q-132 0 -256 45t-220 128t-153 198t-57 255zM660 -442q80 -8 159 6t138 37t89 51t15 50t-87 31t-216 -3q-30 0 -47 30t-26 72t-11 88t-2 80 q-8 70 9 83t39 0t38 -38t6 -33q0 -34 -1 -65t3 -55t15 -38t33 -14q116 12 191 -3t113 -48t44 -78t-16 -91t-67 -87t-108 -67t-141 -30t-164 24q-6 0 -6 13t1 30l2 33q1 16 -3 22z" />
<glyph unicode="&#xc8;" horiz-adv-x="1514" d="M86 1596q52 -14 143 -17q55 -2 116 -2q41 0 84 1q109 2 228 6t226 4t195 -7t138 -25v-124q-68 -10 -186 -12t-252 -3t-268 -8t-234 -29q-18 -82 -26 -137t-11 -96q-2 -31 -2 -59v-18q1 -36 4 -77t6 -95t3 -132q128 0 249 13t240 30t239 30t246 13v-136l-956 -120l14 -410 q188 0 340 11t289 23l271 23q134 11 284 11q0 -22 -12 -53t-32 -56t-45 -38t-49 5q-138 -16 -305 -31l-338 -30l-330 -28l-279 -23zM728 1792l-42 -108l-102 72q-38 28 -60 50t-34 41t-20 45q-4 26 -1 50t15 37t31 10t45 -33z" />
<glyph unicode="&#xc9;" horiz-adv-x="1514" d="M86 1596q52 -14 143 -17q55 -2 116 -2q41 0 84 1q109 2 228 6t226 4t195 -7t138 -25v-124q-68 -10 -186 -12t-252 -3t-268 -8t-234 -29q-18 -82 -26 -137t-11 -96q-2 -31 -2 -59v-18q1 -36 4 -77t6 -95t3 -132q128 0 249 13t240 30t239 30t246 13v-136l-956 -120l14 -410 q188 0 340 11t289 23l271 23q134 11 284 11q0 -22 -12 -53t-32 -56t-45 -38t-49 5q-138 -16 -305 -31l-338 -30l-330 -28l-279 -23zM702 1970q26 32 50 42t40 3t26 -26t10 -41q-6 -24 -15 -43t-31 -45t-64 -63l-110 -93l-78 70z" />
<glyph unicode="&#xca;" horiz-adv-x="1514" d="M86 1596q52 -14 143 -17q55 -2 116 -2q41 0 84 1q109 2 228 6t226 4t195 -7t138 -25v-124q-68 -10 -186 -12t-252 -3t-268 -8t-234 -29q-18 -82 -26 -137t-11 -96q-2 -31 -2 -59v-18q1 -36 4 -77t6 -95t3 -132q128 0 249 13t240 30t239 30t246 13v-136l-956 -120l14 -410 q188 0 340 11t289 23l271 23q134 11 284 11q0 -22 -12 -53t-32 -56t-45 -38t-49 5q-138 -16 -305 -31l-338 -30l-330 -28l-279 -23zM356 1778q0 30 26 76t74 95t115 98t147 85l95 -61q41 -27 77 -60t73 -79t83 -120q16 -30 17 -56t-11 -42t-35 -18t-55 16l-56 40l-32 23 q-12 9 -21 19t-26 27l-46 47l-81 82q-54 -38 -93 -70t-67 -63t-47 -62t-33 -67q-46 0 -75 13t-29 77z" />
<glyph unicode="&#xcb;" horiz-adv-x="1514" d="M86 1596q52 -14 143 -17q55 -2 116 -2q41 0 84 1q109 2 228 6t226 4t195 -7t138 -25v-124q-68 -10 -186 -12t-252 -3t-268 -8t-234 -29q-18 -82 -26 -137t-11 -96q-2 -31 -2 -59v-18q1 -36 4 -77t6 -95t3 -132q128 0 249 13t240 30t239 30t246 13v-136l-956 -120l14 -410 q188 0 340 11t289 23l271 23q134 11 284 11q0 -22 -12 -53t-32 -56t-45 -38t-49 5q-138 -16 -305 -31l-338 -30l-330 -28l-279 -23zM416 1768q0 10 19 25t43 27q26 14 62 30q52 0 71 -22t19 -62q0 -30 -15 -47t-38 -25t-50 -10t-51 -2q-32 0 -46 19t-14 67zM776 1768 q0 10 19 25t43 27q28 14 64 30q52 0 71 -22t19 -62q0 -30 -15 -47t-38 -25t-51 -10t-52 -2q-32 0 -46 19t-14 67z" />
<glyph unicode="&#xcc;" d="M96 40q-14 30 -20 105t-9 176q-2 61 -2 128q0 45 1 93q2 120 5 241t7 234t9 200t7 140t2 55q30 18 53 30t53 12q18 0 39 -8t21 -34v-1372q0 -26 -21 -34t-39 -8q-30 0 -53 12t-53 30zM280 1704l-42 -108l-102 72q-38 28 -60 50t-34 41t-20 45q-4 26 -1 50t15 37t31 10 t45 -33z" />
<glyph unicode="&#xcd;" d="M96 40q-14 30 -20 105t-9 176q-2 61 -2 128q0 45 1 93q2 120 5 241t7 234t9 200t7 140t2 55q30 18 53 30t53 12q18 0 39 -8t21 -34v-1372q0 -26 -21 -34t-39 -8q-30 0 -53 12t-53 30zM202 1778q26 32 50 42t40 3t26 -26t10 -41q-6 -24 -15 -43t-31 -45t-64 -63l-110 -93 l-78 70z" />
<glyph unicode="&#xce;" d="M96 40q-14 30 -20 105t-9 176q-2 61 -2 128q0 45 1 93q2 120 5 241t7 234t9 200t7 140t2 55q30 18 53 30t53 12q18 0 39 -8t21 -34v-1372q0 -26 -21 -34t-39 -8q-30 0 -53 12t-53 30zM-144 1614q0 30 26 76t74 95t115 98t147 85l95 -61q41 -27 77 -60t73 -79t83 -120 q16 -30 17 -56t-11 -42t-35 -18t-55 16l-56 40l-32 23q-12 9 -21 19t-26 27l-46 47l-81 82q-54 -38 -93 -70t-67 -63t-47 -62t-33 -67q-46 0 -75 13t-29 77z" />
<glyph unicode="&#xcf;" d="M96 40q-14 30 -20 105t-9 176q-2 61 -2 128q0 45 1 93q2 120 5 241t7 234t9 200t7 140t2 55q30 18 53 30t53 12q18 0 39 -8t21 -34v-1372q0 -26 -21 -34t-39 -8q-30 0 -53 12t-53 30zM-118 1656q0 10 19 25t43 27q26 14 62 30q52 0 71 -22t19 -62q0 -30 -15 -47t-38 -25 t-50 -10t-51 -2q-32 0 -46 19t-14 67zM242 1656q0 10 19 25t43 27q28 14 64 30q52 0 71 -22t19 -62q0 -30 -15 -47t-38 -25t-51 -10t-52 -2q-32 0 -46 19t-14 67z" />
<glyph unicode="&#xd0;" horiz-adv-x="1746" d="M24 548q0 34 29 47t59 17l35 4q17 2 35 6v972h34q26 0 53 -5t50 -17t29 -36q54 18 140 34t190 23t219 4t227 -22t213 -57t178 -100t122 -150t45 -210q10 -110 -35 -217t-129 -207t-198 -190t-241 -164t-260 -131t-253 -90t-221 -41t-163 16v452l-32 -2q-16 0 -38 2t-41 9 t-33 19t-14 34zM1514 1038q-14 122 -82 203t-168 128t-221 64t-241 13t-228 -25t-182 -51v-714l84 12q42 6 86 10q50 0 85 -17t46 -40t-3 -48t-60 -39l-238 -26v-330q82 0 197 34t240 94t248 143t220 178t157 200t60 211z" />
<glyph unicode="&#xd1;" horiz-adv-x="1606" d="M1276 8q-94 164 -215 331l-249 336l-254 337q-126 168 -230 334q-18 -78 -28 -182t-15 -222t-6 -243t-1 -246t-2 -231t-8 -196q-34 -30 -61 -38t-65 -8q-36 0 -60 13q-21 11 -21 57q0 8 1 16q12 102 22 235t17 280t11 303t6 303t2 280t-4 235l66 61q26 23 51 23t55 -26 t76 -88l116 -162l174 -248l251 -347l347 -457l48 1244q26 50 54 69t74 19q42 0 60 -31t24 -73q4 -28 4 -56q0 -14 -1 -28q-3 -42 -3 -64q0 -78 2 -210t3 -288q0 -78 0.5 -158t-0.5 -163q-1 -165 -7 -311t-18 -257t-34 -159zM766 1944q-50 44 -88 74t-77 27t-86 -48 t-119 -151q-8 0 -22 2t-28 8t-26 16t-16 26q38 120 113 212t159 126q34 14 65 2t62 -37t60 -58t60 -63t64 -50t69 -20q56 0 87 17t57 50t57 81t87 108q16 0 32 -27t16 -47q10 -56 -12 -110t-65 -98t-102 -74t-121 -39t-121 7t-105 66z" />
<glyph unicode="&#xd2;" horiz-adv-x="1716" d="M56 748q0 172 59 314t161 243t242 157t302 56q156 0 303 -39t261 -121t183 -209t69 -305q0 -412 -193 -610t-595 -198q-170 0 -315 40t-251 125t-166 220t-60 327zM260 788q0 -298 149 -444t445 -146q148 0 270 46t208 129t133 198t47 255t-60 239t-156 162t-219 91 t-249 28q-112 0 -215 -44t-181 -119t-125 -177t-47 -218zM966 1738l-42 -108l-102 72q-38 28 -60 50t-34 41t-20 45q-4 26 -1 50t15 37t31 10t45 -33z" />
<glyph unicode="&#xd3;" horiz-adv-x="1716" d="M56 748q0 172 59 314t161 243t242 157t302 56q156 0 303 -39t261 -121t183 -209t69 -305q0 -412 -193 -610t-595 -198q-170 0 -315 40t-251 125t-166 220t-60 327zM260 788q0 -298 149 -444t445 -146q148 0 270 46t208 129t133 198t47 255t-60 239t-156 162t-219 91 t-249 28q-112 0 -215 -44t-181 -119t-125 -177t-47 -218zM896 1884q26 32 50 42t40 3t26 -26t10 -41q-6 -24 -15 -43t-31 -45t-64 -63l-110 -93l-78 70z" />
<glyph unicode="&#xd4;" horiz-adv-x="1716" d="M56 748q0 172 59 314t161 243t242 157t302 56q156 0 303 -39t261 -121t183 -209t69 -305q0 -412 -193 -610t-595 -198q-170 0 -315 40t-251 125t-166 220t-60 327zM260 788q0 -298 149 -444t445 -146q148 0 270 46t208 129t133 198t47 255t-60 239t-156 162t-219 91 t-249 28q-112 0 -215 -44t-181 -119t-125 -177t-47 -218zM510 1630q0 30 26 76t74 95t115 98t147 85l95 -61q41 -27 77 -60t73 -79t83 -120q16 -30 17 -56t-11 -42t-35 -18t-55 16l-56 40l-32 23q-12 9 -21 19t-26 27l-46 47l-81 82q-54 -38 -93 -70t-67 -63t-47 -62 t-33 -67q-46 0 -75 13t-29 77z" />
<glyph unicode="&#xd5;" horiz-adv-x="1716" d="M56 748q0 172 59 314t161 243t242 157t302 56q156 0 303 -39t261 -121t183 -209t69 -305q0 -412 -193 -610t-595 -198q-170 0 -315 40t-251 125t-166 220t-60 327zM260 788q0 -298 149 -444t445 -146q148 0 270 46t208 129t133 198t47 255t-60 239t-156 162t-219 91 t-249 28q-112 0 -215 -44t-181 -119t-125 -177t-47 -218zM890 1676q-50 44 -88 74t-77 27t-86 -48t-119 -151q-8 0 -22 2t-28 8t-26 16t-16 26q38 120 113 212t159 126q34 14 65 2t62 -37t60 -58t60 -63t64 -50t69 -20q56 0 87 17t57 50t57 81t87 108q16 0 32 -27t16 -47 q10 -56 -12 -110t-65 -98t-102 -74t-121 -39t-121 7t-105 66z" />
<glyph unicode="&#xd6;" horiz-adv-x="1716" d="M56 748q0 172 59 314t161 243t242 157t302 56q156 0 303 -39t261 -121t183 -209t69 -305q0 -412 -193 -610t-595 -198q-170 0 -315 40t-251 125t-166 220t-60 327zM260 788q0 -298 149 -444t445 -146q148 0 270 46t208 129t133 198t47 255t-60 239t-156 162t-219 91 t-249 28q-112 0 -215 -44t-181 -119t-125 -177t-47 -218zM570 1700q0 10 19 25t43 27q26 14 62 30q52 0 71 -22t19 -62q0 -30 -15 -47t-38 -25t-50 -10t-51 -2q-32 0 -46 19t-14 67zM930 1700q0 10 19 25t43 27q28 14 64 30q52 0 71 -22t19 -62q0 -30 -15 -47t-38 -25 t-51 -10t-52 -2q-32 0 -46 19t-14 67z" />
<glyph unicode="&#xd7;" horiz-adv-x="1204" d="M206 244q8 6 46 48l85 98l92 113q45 57 65 95l-152 170l-56 62l-49 54l-34 39l-13 15l106 114l89 -112q35 -44 57 -74l37 -50q15 -20 30 -38t34 -38t51 -50q24 32 55 78l65 97l71 102q37 51 75 95q42 0 66 -29t24 -55q-32 -70 -67 -121t-67 -92t-59 -79t-43 -82 q42 -30 91 -78t93 -96t79 -91t49 -63q0 -8 -8 -22t-19 -28t-24 -26t-23 -18q-34 18 -72 60t-79 93l-86 102q-45 51 -93 85l-65 -78l-82 -98l-83 -94q-40 -44 -68 -64q-10 -2 -27 2t-35 12t-34 19t-22 23z" />
<glyph unicode="&#xd8;" horiz-adv-x="1716" d="M56 748q0 172 59 314t161 243t242 157t302 56q156 0 303 -39t261 -121t183 -209t69 -305q0 -412 -193 -610t-595 -198q-170 0 -315 40t-251 125t-166 220t-60 327zM260 788q0 -298 149 -444t445 -146q148 0 270 46t208 129t133 198t47 255t-60 239t-156 162t-219 91 t-249 28q-112 0 -215 -44t-181 -119t-125 -177t-47 -218zM276 20q4 16 49 92l117 189l163 254l186 286l186 284l165 250l121 182q47 71 55 81q20 -12 4 -78t-60 -171t-111 -238t-148 -277t-171 -289t-180 -274t-175 -232t-155 -163q-18 0 -28 13t-14 31t-4 35v25z" />
<glyph unicode="&#xd9;" horiz-adv-x="1438" d="M1156 346q-102 -88 -187 -153t-170 -106t-177 -59q-64 -12 -139 -12q-33 0 -69 2q-156 18 -236 95t-108 192q-20 80 -20 174q0 40 4 83q12 142 39 291t58 294t41 265q8 2 32 3t32 1q10 1 20 1q51 0 68 -37q14 -31 14 -81q0 -20 -2 -42q-8 -79 -34 -184t-51 -218t-39 -223 q-6 -50 -6 -95q0 -55 9 -105q17 -90 74 -151t173 -73q17 -1 34 -1q138 0 236 44q110 49 182 138t113 211t62 262t28 291t11 299q12 38 32 55t44 19h7q21 0 43 -10q26 -12 54 -32q10 -142 10 -284q0 -35 -1 -71q-3 -177 -10 -356t-13 -361q-3 -91 -3 -184t3 -188 q0 -28 -26 -37q-21 -7 -47 -7h-12q-33 2 -63 11t-36 19zM828 1610l-42 -108l-102 72q-38 28 -60 50t-34 41t-20 45q-4 26 -1 50t15 37t31 10t45 -33z" />
<glyph unicode="&#xda;" horiz-adv-x="1438" d="M1156 346q-102 -88 -187 -153t-170 -106t-177 -59q-64 -12 -139 -12q-33 0 -69 2q-156 18 -236 95t-108 192q-20 80 -20 174q0 40 4 83q12 142 39 291t58 294t41 265q8 2 32 3t32 1q10 1 20 1q51 0 68 -37q14 -31 14 -81q0 -20 -2 -42q-8 -79 -34 -184t-51 -218t-39 -223 q-6 -50 -6 -95q0 -55 9 -105q17 -90 74 -151t173 -73q17 -1 34 -1q138 0 236 44q110 49 182 138t113 211t62 262t28 291t11 299q12 38 32 55t44 19h7q21 0 43 -10q26 -12 54 -32q10 -142 10 -284q0 -35 -1 -71q-3 -177 -10 -356t-13 -361q-3 -91 -3 -184t3 -188 q0 -28 -26 -37q-21 -7 -47 -7h-12q-33 2 -63 11t-36 19zM792 1866q26 32 50 42t40 3t26 -26t10 -41q-6 -24 -15 -43t-31 -45t-64 -63l-110 -93l-78 70z" />
<glyph unicode="&#xdb;" horiz-adv-x="1438" d="M1156 346q-102 -88 -187 -153t-170 -106t-177 -59q-64 -12 -139 -12q-33 0 -69 2q-156 18 -236 95t-108 192q-20 80 -20 174q0 40 4 83q12 142 39 291t58 294t41 265q8 2 32 3t32 1q10 1 20 1q51 0 68 -37q14 -31 14 -81q0 -20 -2 -42q-8 -79 -34 -184t-51 -218t-39 -223 q-6 -50 -6 -95q0 -55 9 -105q17 -90 74 -151t173 -73q17 -1 34 -1q138 0 236 44q110 49 182 138t113 211t62 262t28 291t11 299q12 38 32 55t44 19h7q21 0 43 -10q26 -12 54 -32q10 -142 10 -284q0 -35 -1 -71q-3 -177 -10 -356t-13 -361q-3 -91 -3 -184t3 -188 q0 -28 -26 -37q-21 -7 -47 -7h-12q-33 2 -63 11t-36 19zM404 1682q0 30 26 76t74 95t115 98t147 85l95 -61q41 -27 77 -60t73 -79t83 -120q16 -30 17 -56t-11 -42t-35 -18t-55 16l-56 40l-32 23q-12 9 -21 19t-26 27l-46 47l-81 82q-54 -38 -93 -70t-67 -63t-47 -62t-33 -67 q-46 0 -75 13t-29 77z" />
<glyph unicode="&#xdc;" horiz-adv-x="1438" d="M1156 346q-102 -88 -187 -153t-170 -106t-177 -59q-64 -12 -139 -12q-33 0 -69 2q-156 18 -236 95t-108 192q-20 80 -20 174q0 40 4 83q12 142 39 291t58 294t41 265q8 2 32 3t32 1q10 1 20 1q51 0 68 -37q14 -31 14 -81q0 -20 -2 -42q-8 -79 -34 -184t-51 -218t-39 -223 q-6 -50 -6 -95q0 -55 9 -105q17 -90 74 -151t173 -73q17 -1 34 -1q138 0 236 44q110 49 182 138t113 211t62 262t28 291t11 299q12 38 32 55t44 19h7q21 0 43 -10q26 -12 54 -32q10 -142 10 -284q0 -35 -1 -71q-3 -177 -10 -356t-13 -361q-3 -91 -3 -184t3 -188 q0 -28 -26 -37q-21 -7 -47 -7h-12q-33 2 -63 11t-36 19zM456 1716q0 10 19 25t43 27q26 14 62 30q52 0 71 -22t19 -62q0 -30 -15 -47t-38 -25t-50 -10t-51 -2q-32 0 -46 19t-14 67zM816 1716q0 10 19 25t43 27q28 14 64 30q52 0 71 -22t19 -62q0 -30 -15 -47t-38 -25 t-51 -10t-52 -2q-32 0 -46 19t-14 67z" />
<glyph unicode="&#xdd;" horiz-adv-x="1368" d="M694 -46q-16 0 -45 10t-56 26t-45 37t-8 45q10 16 26 60t36 105l42 131l43 139l39 131l30 106l-668 682q-19 22 -19 37q0 4 1 7q6 16 24 25t39 11t29 2q34 0 67 -6t71 -25t85 -58t112 -106t152 -165l203 -238q76 222 132 365t101 228t83 121t78 42q24 0 47 -5t33 -37 q-78 -166 -149 -374l-146 -432l-157 -447q-82 -223 -180 -417zM802 1918q26 32 50 42t40 3t26 -26t10 -41q-6 -24 -15 -43t-31 -45t-64 -63l-110 -93l-78 70z" />
<glyph unicode="&#xde;" horiz-adv-x="1294" d="M264 62q0 -28 -20 -43t-45 -17t-50 10t-37 40l-6 394l-20 1246q-8 56 23 80t70 24t71 -21t26 -57l12 -624q78 102 181 188t211 143t212 78t186 -6t132 -108t50 -227q0 -100 -47 -197t-126 -184t-181 -159t-212 -122t-218 -74t-200 -12zM1114 1138q-22 98 -94 133t-167 18 t-199 -77t-188 -150t-133 -202t-35 -232q-10 -32 28 -43t105 1t157 51t184 106t184 165t158 230z" />
<glyph unicode="&#xdf;" horiz-adv-x="1820" d="M366 -362h-172q16 110 22 252t5 301t-7 329t-13 336l-13 321q-6 155 -6 285v36q0 28 18 60t63 63t133 45q138 24 278 22t263 -25t221 -65t156 -99t66 -124t-50 -141t-190 -152t-354 -154q306 -16 498 -61t290 -107t113 -137t-34 -154t-150 -156t-234 -143t-288 -116 t-313 -76l-18 194q286 42 468 112t264 149t67 155t-124 129t-307 72t-482 -17l-12 264q108 22 215 50t194 64t141 80t54 98q0 46 -30 79t-77 56t-106 38t-117 23t-108 11t-80 3h-52q-42 0 -90 -3t-90 -12t-50 -27z" />
<glyph unicode="&#xe0;" horiz-adv-x="1302" d="M1050 414q-58 -90 -134 -163t-167 -124t-198 -75q-76 -17 -157 -17q-34 0 -68 3q-42 0 -90 10t-89 32t-67 58t-26 90q-9 46 -9 93q0 66 18 134q31 115 97 222t162 198t205 154t224 91q67 16 132 16q46 0 91 -8q82 0 128 -54t69 -144t29 -207t10 -241t11 -245t31 -221 h-148q-10 68 -15 120l-9 97q-4 45 -11 87t-19 94zM898 948q-14 1 -29 1q-65 0 -132 -22q-83 -27 -160 -76t-144 -116t-117 -139t-77 -143q-23 -60 -23 -112q0 -10 1 -19q5 -60 45 -102t124 -56q120 2 231 61t198 146t145 188t75 187q6 30 6 56q0 50 -21 88q-32 58 -122 58z M786 1342l-42 -108l-102 72q-38 28 -60 50t-34 41t-20 45q-4 26 -1 50t15 37t31 10t45 -33z" />
<glyph unicode="&#xe1;" horiz-adv-x="1302" d="M1050 414q-58 -90 -134 -163t-167 -124t-198 -75q-76 -17 -157 -17q-34 0 -68 3q-42 0 -90 10t-89 32t-67 58t-26 90q-9 46 -9 93q0 66 18 134q31 115 97 222t162 198t205 154t224 91q67 16 132 16q46 0 91 -8q82 0 128 -54t69 -144t29 -207t10 -241t11 -245t31 -221 h-148q-10 68 -15 120l-9 97q-4 45 -11 87t-19 94zM898 948q-14 1 -29 1q-65 0 -132 -22q-83 -27 -160 -76t-144 -116t-117 -139t-77 -143q-23 -60 -23 -112q0 -10 1 -19q5 -60 45 -102t124 -56q120 2 231 61t198 146t145 188t75 187q6 30 6 56q0 50 -21 88q-32 58 -122 58z M674 1512q26 32 50 42t40 3t26 -26t10 -41q-6 -24 -15 -43t-31 -45t-64 -63l-110 -93l-78 70z" />
<glyph unicode="&#xe2;" horiz-adv-x="1302" d="M1050 414q-58 -90 -134 -163t-167 -124t-198 -75q-76 -17 -157 -17q-34 0 -68 3q-42 0 -90 10t-89 32t-67 58t-26 90q-9 46 -9 93q0 66 18 134q31 115 97 222t162 198t205 154t224 91q67 16 132 16q46 0 91 -8q82 0 128 -54t69 -144t29 -207t10 -241t11 -245t31 -221 h-148q-10 68 -15 120l-9 97q-4 45 -11 87t-19 94zM898 948q-14 1 -29 1q-65 0 -132 -22q-83 -27 -160 -76t-144 -116t-117 -139t-77 -143q-23 -60 -23 -112q0 -10 1 -19q5 -60 45 -102t124 -56q120 2 231 61t198 146t145 188t75 187q6 30 6 56q0 50 -21 88q-32 58 -122 58z M284 1364q0 30 26 76t74 95t115 98t147 85l95 -61q41 -27 77 -60t73 -79t83 -120q16 -30 17 -56t-11 -42t-35 -18t-55 16l-56 40l-32 23q-12 9 -21 19t-26 27l-46 47l-81 82q-54 -38 -93 -70t-67 -63t-47 -62t-33 -67q-46 0 -75 13t-29 77z" />
<glyph unicode="&#xe3;" horiz-adv-x="1302" d="M1050 414q-58 -90 -134 -163t-167 -124t-198 -75q-76 -17 -157 -17q-34 0 -68 3q-42 0 -90 10t-89 32t-67 58t-26 90q-9 46 -9 93q0 66 18 134q31 115 97 222t162 198t205 154t224 91q67 16 132 16q46 0 91 -8q82 0 128 -54t69 -144t29 -207t10 -241t11 -245t31 -221 h-148q-10 68 -15 120l-9 97q-4 45 -11 87t-19 94zM898 948q-14 1 -29 1q-65 0 -132 -22q-83 -27 -160 -76t-144 -116t-117 -139t-77 -143q-23 -60 -23 -112q0 -10 1 -19q5 -60 45 -102t124 -56q120 2 231 61t198 146t145 188t75 187q6 30 6 56q0 50 -21 88q-32 58 -122 58z M598 1314q-50 44 -88 74t-77 27t-86 -48t-119 -151q-8 0 -22 2t-28 8t-26 16t-16 26q38 120 113 212t159 126q34 14 65 2t62 -37t60 -58t60 -63t64 -50t69 -20q56 0 87 17t57 50t57 81t87 108q16 0 32 -27t16 -47q10 -56 -12 -110t-65 -98t-102 -74t-121 -39t-121 7t-105 66 z" />
<glyph unicode="&#xe4;" horiz-adv-x="1302" d="M1050 414q-58 -90 -134 -163t-167 -124t-198 -75q-76 -17 -157 -17q-34 0 -68 3q-42 0 -90 10t-89 32t-67 58t-26 90q-9 46 -9 93q0 66 18 134q31 115 97 222t162 198t205 154t224 91q67 16 132 16q46 0 91 -8q82 0 128 -54t69 -144t29 -207t10 -241t11 -245t31 -221 h-148q-10 68 -15 120l-9 97q-4 45 -11 87t-19 94zM898 948q-14 1 -29 1q-65 0 -132 -22q-83 -27 -160 -76t-144 -116t-117 -139t-77 -143q-23 -60 -23 -112q0 -10 1 -19q5 -60 45 -102t124 -56q120 2 231 61t198 146t145 188t75 187q6 30 6 56q0 50 -21 88q-32 58 -122 58z M362 1578q0 10 19 25t43 27q26 14 62 30q52 0 71 -22t19 -62q0 -30 -15 -47t-38 -25t-50 -10t-51 -2q-32 0 -46 19t-14 67zM722 1578q0 10 19 25t43 27q28 14 64 30q52 0 71 -22t19 -62q0 -30 -15 -47t-38 -25t-51 -10t-52 -2q-32 0 -46 19t-14 67z" />
<glyph unicode="&#xe5;" horiz-adv-x="1302" d="M1050 414q-58 -90 -134 -163t-167 -124t-198 -75q-76 -17 -157 -17q-34 0 -68 3q-42 0 -90 10t-89 32t-67 58t-26 90q-9 46 -9 93q0 66 18 134q31 115 97 222t162 198t205 154t224 91q67 16 132 16q46 0 91 -8q82 0 128 -54t69 -144t29 -207t10 -241t11 -245t31 -221 h-148q-10 68 -15 120l-9 97q-4 45 -11 87t-19 94zM898 948q-14 1 -29 1q-65 0 -132 -22q-83 -27 -160 -76t-144 -116t-117 -139t-77 -143q-23 -60 -23 -112q0 -10 1 -19q5 -60 45 -102t124 -56q120 2 231 61t198 146t145 188t75 187q6 30 6 56q0 50 -21 88q-32 58 -122 58z M462 1150q0 84 30 133t76 69t100 14t102 -34t82 -73t40 -101q0 -126 -52 -167t-154 -41q-32 0 -71 12t-73 37t-57 63t-23 88zM774 1200q-42 46 -90 56t-82 -9t-42 -62t30 -105q46 -38 89 -42t71 16t37 59t-13 87z" />
<glyph unicode="&#xe6;" horiz-adv-x="2364" d="M1050 414q-58 -90 -134 -163t-167 -124t-198 -75q-76 -17 -157 -17q-34 0 -68 3q-42 0 -90 10t-89 32t-67 58t-26 90q-9 46 -9 93q0 66 18 134q31 115 97 222t162 198t205 154t224 91q67 16 132 16q46 0 91 -8q82 0 128 -54t69 -144t29 -207t10 -241t11 -245t31 -221 h-148q-10 68 -15 120l-9 97q-4 45 -11 87t-19 94zM898 948q-14 1 -29 1q-65 0 -132 -22q-83 -27 -160 -76t-144 -116t-117 -139t-77 -143q-23 -60 -23 -112q0 -10 1 -19q5 -60 45 -102t124 -56q120 2 231 61t198 146t145 188t75 187q6 30 6 56q0 50 -21 88q-32 58 -122 58z M1098 288q-5 44 -5 86q0 117 36 230q49 154 148 272t239 187q132 65 288 65h18q28 0 75 -8t100 -25t104 -43t90 -62t59 -81q13 -30 13 -65q0 -17 -3 -36q-82 -58 -189 -80t-218 -31t-217 -16t-185 -37t-122 -95q-31 -47 -31 -125q0 -29 4 -62q30 -110 99 -162t160 -63 q31 -4 64 -4q62 0 130 14q103 21 202 55t185 72l142 62q26 0 44 -19t18 -45q-50 -86 -152 -154t-230 -110t-267 -52q-35 -2 -68 -2q-101 0 -193 22q-122 30 -214 106t-124 206zM1804 978q-36 0 -88 -8t-100 -28t-83 -52t-35 -82l496 82q-32 48 -83 68t-107 20z" />
<glyph unicode="&#xe7;" horiz-adv-x="1620" d="M54 394q-1 15 -1 29q0 77 35 154q42 91 117 174t176 154t213 121t227 75q82 18 158 18q30 0 59 -3q38 0 76 -4t67 -20t47 -46t18 -82q0 -26 -13 -46t-32 -38t-41 -32t-40 -28q-6 28 -12 53t-19 44t-34 30t-55 11q-118 -24 -255 -73t-252 -117t-185 -153q-57 -69 -57 -147 q0 -18 3 -36q0 -88 34 -142t89 -84t126 -40t145 -10q114 0 221 34t209 76t200 76t192 34q16 0 33 -2t30 -11t18 -26q2 -8 2 -18q0 -12 -3 -29q-10 -36 -71 -72t-150 -68t-194 -60t-204 -48t-178 -31t-117 -11q-88 0 -190 20t-189 66t-145 121t-58 187zM426 -460q80 -8 159 6 t138 37t89 51t15 50t-87 31t-216 -3q-30 0 -47 30t-26 72t-11 88t-2 80q-8 70 9 83t39 0t38 -38t6 -33q0 -34 -1 -65t3 -55t15 -38t33 -14q116 12 191 -3t113 -48t44 -78t-16 -91t-67 -87t-108 -67t-141 -30t-164 24q-6 0 -6 13t1 30l2 33q1 16 -3 22z" />
<glyph unicode="&#xe8;" horiz-adv-x="1384" d="M54 328q-5 44 -5 86q0 117 36 230q49 154 148 272t239 187q132 65 288 65h18q28 0 75 -8t100 -25t104 -43t90 -62t59 -81q13 -30 13 -65q0 -17 -3 -36q-82 -58 -189 -80t-218 -31t-217 -16t-185 -37t-122 -95q-31 -47 -31 -125q0 -29 4 -62q30 -110 99 -162t160 -63 q31 -4 64 -4q62 0 130 14q103 21 202 55t185 72l142 62q26 0 44 -19t18 -45q-50 -86 -152 -154t-230 -110t-267 -52q-35 -2 -68 -2q-101 0 -193 22q-122 30 -214 106t-124 206zM760 1018q-36 0 -88 -8t-100 -28t-83 -52t-35 -82l496 82q-32 48 -83 68t-107 20zM826 1342 l-42 -108l-102 72q-38 28 -60 50t-34 41t-20 45q-4 26 -1 50t15 37t31 10t45 -33z" />
<glyph unicode="&#xe9;" horiz-adv-x="1384" d="M54 328q-5 44 -5 86q0 117 36 230q49 154 148 272t239 187q132 65 288 65h18q28 0 75 -8t100 -25t104 -43t90 -62t59 -81q13 -30 13 -65q0 -17 -3 -36q-82 -58 -189 -80t-218 -31t-217 -16t-185 -37t-122 -95q-31 -47 -31 -125q0 -29 4 -62q30 -110 99 -162t160 -63 q31 -4 64 -4q62 0 130 14q103 21 202 55t185 72l142 62q26 0 44 -19t18 -45q-50 -86 -152 -154t-230 -110t-267 -52q-35 -2 -68 -2q-101 0 -193 22q-122 30 -214 106t-124 206zM760 1018q-36 0 -88 -8t-100 -28t-83 -52t-35 -82l496 82q-32 48 -83 68t-107 20zM714 1512 q26 32 50 42t40 3t26 -26t10 -41q-6 -24 -15 -43t-31 -45t-64 -63l-110 -93l-78 70z" />
<glyph unicode="&#xea;" horiz-adv-x="1384" d="M54 328q-5 44 -5 86q0 117 36 230q49 154 148 272t239 187q132 65 288 65h18q28 0 75 -8t100 -25t104 -43t90 -62t59 -81q13 -30 13 -65q0 -17 -3 -36q-82 -58 -189 -80t-218 -31t-217 -16t-185 -37t-122 -95q-31 -47 -31 -125q0 -29 4 -62q30 -110 99 -162t160 -63 q31 -4 64 -4q62 0 130 14q103 21 202 55t185 72l142 62q26 0 44 -19t18 -45q-50 -86 -152 -154t-230 -110t-267 -52q-35 -2 -68 -2q-101 0 -193 22q-122 30 -214 106t-124 206zM760 1018q-36 0 -88 -8t-100 -28t-83 -52t-35 -82l496 82q-32 48 -83 68t-107 20zM326 1364 q0 30 26 76t74 95t115 98t147 85l95 -61q41 -27 77 -60t73 -79t83 -120q16 -30 17 -56t-11 -42t-35 -18t-55 16l-56 40l-32 23q-12 9 -21 19t-26 27l-46 47l-81 82q-54 -38 -93 -70t-67 -63t-47 -62t-33 -67q-46 0 -75 13t-29 77z" />
<glyph unicode="&#xeb;" horiz-adv-x="1384" d="M54 328q-5 44 -5 86q0 117 36 230q49 154 148 272t239 187q132 65 288 65h18q28 0 75 -8t100 -25t104 -43t90 -62t59 -81q13 -30 13 -65q0 -17 -3 -36q-82 -58 -189 -80t-218 -31t-217 -16t-185 -37t-122 -95q-31 -47 -31 -125q0 -29 4 -62q30 -110 99 -162t160 -63 q31 -4 64 -4q62 0 130 14q103 21 202 55t185 72l142 62q26 0 44 -19t18 -45q-50 -86 -152 -154t-230 -110t-267 -52q-35 -2 -68 -2q-101 0 -193 22q-122 30 -214 106t-124 206zM760 1018q-36 0 -88 -8t-100 -28t-83 -52t-35 -82l496 82q-32 48 -83 68t-107 20zM404 1578 q0 10 19 25t43 27q26 14 62 30q52 0 71 -22t19 -62q0 -30 -15 -47t-38 -25t-50 -10t-51 -2q-32 0 -46 19t-14 67zM764 1578q0 10 19 25t43 27q28 14 64 30q52 0 71 -22t19 -62q0 -30 -15 -47t-38 -25t-51 -10t-52 -2q-32 0 -46 19t-14 67z" />
<glyph unicode="&#xec;" d="M134 1174v-1116q8 -20 39 -32t67 -11t67 19t41 58q-10 282 -24 559t-32 523h-158zM330 1472l-42 -108l-102 72q-38 28 -60 50t-34 41t-20 45q-4 26 -1 50t15 37t31 10t45 -33z" />
<glyph unicode="&#xed;" d="M292 1174q18 -246 32 -523t24 -559q-10 -40 -41 -58t-67 -19t-67 11t-39 32v1116h158zM254 1598q26 32 50 42t40 3t26 -26t10 -41q-6 -24 -15 -43t-31 -45t-64 -63l-110 -93l-78 70z" />
<glyph unicode="&#xee;" d="M292 1174q18 -246 32 -523t24 -559q-10 -40 -41 -58t-67 -19t-67 11t-39 32v1116h158zM-172 1364q0 30 26 76t74 95t115 98t147 85l95 -61q41 -27 77 -60t73 -79t83 -120q16 -30 17 -56t-11 -42t-35 -18t-55 16l-56 40l-32 23q-12 9 -21 19t-26 27l-46 47l-81 82 q-54 -38 -93 -70t-67 -63t-47 -62t-33 -67q-46 0 -75 13t-29 77z" />
<glyph unicode="&#xef;" d="M292 1174q18 -246 32 -523t24 -559q-10 -40 -41 -58t-67 -19t-67 11t-39 32v1116h158zM-94 1578q0 10 19 25t43 27q26 14 62 30q52 0 71 -22t19 -62q0 -30 -15 -47t-38 -25t-50 -10t-51 -2q-32 0 -46 19t-14 67zM266 1578q0 10 19 25t43 27q28 14 64 30q52 0 71 -22 t19 -62q0 -30 -15 -47t-38 -25t-51 -10t-52 -2q-32 0 -46 19t-14 67z" />
<glyph unicode="&#xf0;" horiz-adv-x="1484" d="M724 1122l170 86q-58 94 -138 153t-160 89q0 46 36 72t68 32q58 -28 108 -55t96 -57t93 -68t99 -88l182 130l104 -124l-174 -128q48 -94 84 -205t50 -226t4 -226t-52 -206t-121 -166t-201 -107q-74 -22 -177 -3t-209 67t-205 116t-164 145t-85 154t30 141q98 100 211 134 t238 29t264 -35l291 -60q-4 46 -18 95t-34 95t-43 88t-45 76l-198 -112zM364 580q0 -114 48 -190t125 -123t176 -66t201 -19q74 4 127 35t85 79t40 109t-8 125q-94 36 -199 62t-210 35t-204 -2t-181 -45z" />
<glyph unicode="&#xf1;" horiz-adv-x="1280" d="M1010 984q14 32 -30 37q-12 1 -25 1q-39 0 -95 -10q-76 -14 -170 -44t-179 -71t-148 -91t-77 -100l-2 -680h-166q-12 28 -19 89t-11 144t-5 180v65q0 65 1 131q2 99 6 194t9 173t10 131t11 71q22 16 50 30t56 14q36 -2 49 -47t13 -102t-7 -111t-7 -74q208 154 358 224 t253 74h15q93 0 150 -48q62 -52 96 -144t45 -215t13 -259q1 -68 1 -137t-1 -140v-70q0 -103 4 -199q-24 -12 -33 -14q-4 -1 -8 -1q-6 0 -12 2q-11 3 -29 7t-56 6q-24 98 -27 224q-2 76 -2 153q0 52 1 105q1 44 1 88q0 88 -3 174q-4 130 -30 240zM612 1460q-50 44 -88 74 t-77 27t-86 -48t-119 -151q-8 0 -22 2t-28 8t-26 16t-16 26q38 120 113 212t159 126q34 14 65 2t62 -37t60 -58t60 -63t64 -50t69 -20q56 0 87 17t57 50t57 81t87 108q16 0 32 -27t16 -47q10 -56 -12 -110t-65 -98t-102 -74t-121 -39t-121 7t-105 66z" />
<glyph unicode="&#xf2;" horiz-adv-x="1440" d="M130 474q0 164 72 281t182 195t240 119t248 53q17 1 33 1q96 0 181 -30q100 -35 172 -99t111 -152q31 -70 31 -146q0 -20 -2 -40q0 -164 -65 -287t-173 -206t-251 -124t-299 -41q-236 0 -358 110t-122 366zM302 414q0 -84 21 -134t62 -75t100 -33t137 -8q120 0 232 23 t198 78t138 146t52 227q0 70 -20 133t-60 110t-98 75t-132 28q-98 -16 -196 -37t-184 -76t-152 -162t-98 -295zM854 1342l-42 -108l-102 72q-38 28 -60 50t-34 41t-20 45q-4 26 -1 50t15 37t31 10t45 -33z" />
<glyph unicode="&#xf3;" horiz-adv-x="1440" d="M130 474q0 164 72 281t182 195t240 119t248 53q17 1 33 1q96 0 181 -30q100 -35 172 -99t111 -152q31 -70 31 -146q0 -20 -2 -40q0 -164 -65 -287t-173 -206t-251 -124t-299 -41q-236 0 -358 110t-122 366zM302 414q0 -84 21 -134t62 -75t100 -33t137 -8q120 0 232 23 t198 78t138 146t52 227q0 70 -20 133t-60 110t-98 75t-132 28q-98 -16 -196 -37t-184 -76t-152 -162t-98 -295zM742 1512q26 32 50 42t40 3t26 -26t10 -41q-6 -24 -15 -43t-31 -45t-64 -63l-110 -93l-78 70z" />
<glyph unicode="&#xf4;" horiz-adv-x="1440" d="M130 474q0 164 72 281t182 195t240 119t248 53q17 1 33 1q96 0 181 -30q100 -35 172 -99t111 -152q31 -70 31 -146q0 -20 -2 -40q0 -164 -65 -287t-173 -206t-251 -124t-299 -41q-236 0 -358 110t-122 366zM302 414q0 -84 21 -134t62 -75t100 -33t137 -8q120 0 232 23 t198 78t138 146t52 227q0 70 -20 133t-60 110t-98 75t-132 28q-98 -16 -196 -37t-184 -76t-152 -162t-98 -295zM354 1364q0 30 26 76t74 95t115 98t147 85l95 -61q41 -27 77 -60t73 -79t83 -120q16 -30 17 -56t-11 -42t-35 -18t-55 16l-56 40l-32 23q-12 9 -21 19t-26 27 l-46 47l-81 82q-54 -38 -93 -70t-67 -63t-47 -62t-33 -67q-46 0 -75 13t-29 77z" />
<glyph unicode="&#xf5;" horiz-adv-x="1440" d="M130 474q0 164 72 281t182 195t240 119t248 53q17 1 33 1q96 0 181 -30q100 -35 172 -99t111 -152q31 -70 31 -146q0 -20 -2 -40q0 -164 -65 -287t-173 -206t-251 -124t-299 -41q-236 0 -358 110t-122 366zM302 414q0 -84 21 -134t62 -75t100 -33t137 -8q120 0 232 23 t198 78t138 146t52 227q0 70 -20 133t-60 110t-98 75t-132 28q-98 -16 -196 -37t-184 -76t-152 -162t-98 -295zM666 1314q-50 44 -88 74t-77 27t-86 -48t-119 -151q-8 0 -22 2t-28 8t-26 16t-16 26q38 120 113 212t159 126q34 14 65 2t62 -37t60 -58t60 -63t64 -50t69 -20 q56 0 87 17t57 50t57 81t87 108q16 0 32 -27t16 -47q10 -56 -12 -110t-65 -98t-102 -74t-121 -39t-121 7t-105 66z" />
<glyph unicode="&#xf6;" horiz-adv-x="1440" d="M130 474q0 164 72 281t182 195t240 119t248 53q17 1 33 1q96 0 181 -30q100 -35 172 -99t111 -152q31 -70 31 -146q0 -20 -2 -40q0 -164 -65 -287t-173 -206t-251 -124t-299 -41q-236 0 -358 110t-122 366zM302 414q0 -84 21 -134t62 -75t100 -33t137 -8q120 0 232 23 t198 78t138 146t52 227q0 70 -20 133t-60 110t-98 75t-132 28q-98 -16 -196 -37t-184 -76t-152 -162t-98 -295zM432 1578q0 10 19 25t43 27q26 14 62 30q52 0 71 -22t19 -62q0 -30 -15 -47t-38 -25t-50 -10t-51 -2q-32 0 -46 19t-14 67zM792 1578q0 10 19 25t43 27 q28 14 64 30q52 0 71 -22t19 -62q0 -30 -15 -47t-38 -25t-51 -10t-52 -2q-32 0 -46 19t-14 67z" />
<glyph unicode="&#xf7;" horiz-adv-x="880" d="M426 342q0 38 34 72t72 34q48 0 69 -28t20 -60t-23 -58t-64 -24q-16 0 -34 3t-35 10t-28 20t-11 31zM346 820q-32 10 -35 31t12 42t39 37t46 18q78 -10 104 -46t13 -66t-61 -42t-118 26zM144 604q0 34 29 47t59 17q114 16 223 35t227 31q50 0 85 -17t46 -40t-3 -48 t-60 -39l-480 -50q-16 0 -38 2t-41 9t-33 19t-14 34z" />
<glyph unicode="&#xf8;" horiz-adv-x="1440" d="M130 474q0 164 72 281t182 195t240 119t248 53q17 1 33 1q96 0 181 -30q100 -35 172 -99t111 -152q31 -70 31 -146q0 -20 -2 -40q0 -164 -65 -287t-173 -206t-251 -124t-299 -41q-236 0 -358 110t-122 366zM302 414q0 -84 21 -134t62 -75t100 -33t137 -8q120 0 232 23 t198 78t138 146t52 227q0 70 -20 133t-60 110t-98 75t-132 28q-98 -16 -196 -37t-184 -76t-152 -162t-98 -295zM307.611 -34.1729q3.50781 12.8965 42.9795 74.1553l102.625 152.339l142.973 204.732l163.147 230.524l163.147 228.912l144.728 201.508l106.134 146.697 q41.2256 57.2285 48.2422 65.2891q17.543 -9.67285 3.50879 -62.8711q-14.0342 -53.1973 -52.6279 -137.831q-38.5947 -84.6328 -97.3623 -191.835q-58.7686 -107.202 -129.816 -223.271t-149.99 -232.942q-78.9424 -116.875 -157.885 -220.853t-153.499 -186.999 q-74.5557 -83.0215 -135.956 -131.383q-15.7881 0 -24.5596 10.4785t-12.2803 24.9863q-3.50781 14.5088 -3.50781 28.2119v20.1504z" />
<glyph unicode="&#xf9;" horiz-adv-x="1300" d="M56 332q0 40 -7 112t-12 157q-4 71 -4 144v29q1 88 15 159t45 117t89 46q70 -20 95 -52q22 -29 22 -68q0 -46 -24 -116q-21 -60 -43 -137t-34 -170q-5 -40 -5 -83q0 -58 9 -122q18 -72 73 -111t131 -50q35 -5 72 -5q44 0 91 7q87 13 169 44t150 76t106 97q20 100 22 183 v41q0 61 -4 120q-6 78 -16 159t-12 179q33 14 60 14q35 0 60 -24q44 -42 67 -131t31 -211t9 -251t1 -251t10 -208q-30 -29 -61 -29q-25 0 -52 19q-59 42 -91 182q-32 -28 -110 -69t-179 -73t-212 -46q-41 -5 -80 -5q-67 0 -127 15q-96 24 -166 97t-88 215zM784 1342 l-42 -108l-102 72q-38 28 -60 50t-34 41t-20 45q-4 26 -1 50t15 37t31 10t45 -33z" />
<glyph unicode="&#xfa;" horiz-adv-x="1300" d="M56 332q0 40 -7 112t-12 157q-4 71 -4 144v29q1 88 15 159t45 117t89 46q70 -20 95 -52q22 -29 22 -68q0 -46 -24 -116q-21 -60 -43 -137t-34 -170q-5 -40 -5 -83q0 -58 9 -122q18 -72 73 -111t131 -50q35 -5 72 -5q44 0 91 7q87 13 169 44t150 76t106 97q20 100 22 183 v41q0 61 -4 120q-6 78 -16 159t-12 179q33 14 60 14q35 0 60 -24q44 -42 67 -131t31 -211t9 -251t1 -251t10 -208q-30 -29 -61 -29q-25 0 -52 19q-59 42 -91 182q-32 -28 -110 -69t-179 -73t-212 -46q-41 -5 -80 -5q-67 0 -127 15q-96 24 -166 97t-88 215zM672 1512 q26 32 50 42t40 3t26 -26t10 -41q-6 -24 -15 -43t-31 -45t-64 -63l-110 -93l-78 70z" />
<glyph unicode="&#xfb;" horiz-adv-x="1300" d="M56 332q0 40 -7 112t-12 157q-4 71 -4 144v29q1 88 15 159t45 117t89 46q70 -20 95 -52q22 -29 22 -68q0 -46 -24 -116q-21 -60 -43 -137t-34 -170q-5 -40 -5 -83q0 -58 9 -122q18 -72 73 -111t131 -50q35 -5 72 -5q44 0 91 7q87 13 169 44t150 76t106 97q20 100 22 183 v41q0 61 -4 120q-6 78 -16 159t-12 179q33 14 60 14q35 0 60 -24q44 -42 67 -131t31 -211t9 -251t1 -251t10 -208q-30 -29 -61 -29q-25 0 -52 19q-59 42 -91 182q-32 -28 -110 -69t-179 -73t-212 -46q-41 -5 -80 -5q-67 0 -127 15q-96 24 -166 97t-88 215zM284 1364 q0 30 26 76t74 95t115 98t147 85l95 -61q41 -27 77 -60t73 -79t83 -120q16 -30 17 -56t-11 -42t-35 -18t-55 16l-56 40l-32 23q-12 9 -21 19t-26 27l-46 47l-81 82q-54 -38 -93 -70t-67 -63t-47 -62t-33 -67q-46 0 -75 13t-29 77z" />
<glyph unicode="&#xfc;" horiz-adv-x="1300" d="M56 332q0 40 -7 112t-12 157q-4 71 -4 144v29q1 88 15 159t45 117t89 46q70 -20 95 -52q22 -29 22 -68q0 -46 -24 -116q-21 -60 -43 -137t-34 -170q-5 -40 -5 -83q0 -58 9 -122q18 -72 73 -111t131 -50q35 -5 72 -5q44 0 91 7q87 13 169 44t150 76t106 97q20 100 22 183 v41q0 61 -4 120q-6 78 -16 159t-12 179q33 14 60 14q35 0 60 -24q44 -42 67 -131t31 -211t9 -251t1 -251t10 -208q-30 -29 -61 -29q-25 0 -52 19q-59 42 -91 182q-32 -28 -110 -69t-179 -73t-212 -46q-41 -5 -80 -5q-67 0 -127 15q-96 24 -166 97t-88 215zM362 1578 q0 10 19 25t43 27q26 14 62 30q52 0 71 -22t19 -62q0 -30 -15 -47t-38 -25t-50 -10t-51 -2q-32 0 -46 19t-14 67zM722 1578q0 10 19 25t43 27q28 14 64 30q52 0 71 -22t19 -62q0 -30 -15 -47t-38 -25t-51 -10t-52 -2q-32 0 -46 19t-14 67z" />
<glyph unicode="&#xfd;" horiz-adv-x="1404" d="M594 -942q-28 -68 -65 -94q-33 -23 -61 -23h-6q-30 3 -45 32q-7 14 -7 31q0 18 8 40q28 114 65 236l77 242l80 235l76 217q-22 22 -63 73l-93 119l-111 149l-117 162l-111 158q-53 77 -91 139t-58 101q-15 30 -15 42q0 3 1 5l94 96q46 -44 104 -107t118 -136l122 -151 l118 -153l103 -142q47 -67 79 -117l59 129q21 47 37 88l34 87l51 126l88 204l147 322q14 6 42 9q8 1 17 1q19 0 37 -5q26 -7 41 -28q10 -14 10 -35q0 -11 -3 -24zM724 1512q26 32 50 42t40 3t26 -26t10 -41q-6 -24 -15 -43t-31 -45t-64 -63l-110 -93l-78 70z" />
<glyph unicode="&#xfe;" horiz-adv-x="1328" d="M60 1454q48 20 80 23t52 -35t30 -130t16 -262q280 86 480 98t327 -27t183 -119t47 -179t-80 -206t-198 -201t-307 -163t-408 -93q4 -86 1 -174t9 -182q12 -92 -36 -131t-132 -29zM776 1006q-78 0 -172 -18t-175 -61t-133 -116t-46 -181l12 -302q278 62 455 137t271 150 t114 146t-15 125t-118 87t-193 33z" />
<glyph unicode="&#xff;" horiz-adv-x="1404" d="M594 -942q-28 -68 -65 -94q-33 -23 -61 -23h-6q-30 3 -45 32q-7 14 -7 31q0 18 8 40q28 114 65 236l77 242l80 235l76 217q-22 22 -63 73l-93 119l-111 149l-117 162l-111 158q-53 77 -91 139t-58 101q-15 30 -15 42q0 3 1 5l94 96q46 -44 104 -107t118 -136l122 -151 l118 -153l103 -142q47 -67 79 -117l59 129q21 47 37 88l34 87l51 126l88 204l147 322q14 6 42 9q8 1 17 1q19 0 37 -5q26 -7 41 -28q10 -14 10 -35q0 -11 -3 -24zM414 1578q0 10 19 25t43 27q26 14 62 30q52 0 71 -22t19 -62q0 -30 -15 -47t-38 -25t-50 -10t-51 -2 q-32 0 -46 19t-14 67zM774 1578q0 10 19 25t43 27q28 14 64 30q52 0 71 -22t19 -62q0 -30 -15 -47t-38 -25t-51 -10t-52 -2q-32 0 -46 19t-14 67z" />
<glyph unicode="&#x152;" horiz-adv-x="2710" d="M1300 186q-30 -38 -73 -76t-101 -68t-130 -49t-160 -19q-170 0 -313 49t-247 147t-162 242t-58 336q0 172 61 325t167 267t248 181t304 67q86 0 158 -23t129 -61t103 -88t82 -102l2 248q52 -14 143 -17t200 -1t228 6t226 4t195 -7t138 -25v-124q-68 -10 -186 -12t-252 -3 t-268 -8t-234 -29q-18 -80 -26 -136t-11 -97t-2 -77t4 -77t6 -95t3 -132q128 0 249 13t240 30t239 30t246 13v-136l-956 -120l14 -410q188 0 340 11t289 23l271 23q134 11 284 11q0 -22 -12 -53t-32 -56t-45 -38t-49 5q-138 -16 -305 -31l-338 -30l-330 -28l-279 -23v220z M260 788q0 -148 36 -268t108 -206t181 -132t257 -46q106 0 184 31t134 83t90 120t52 144l4 490q-22 86 -59 162t-94 131t-134 87t-175 32q-112 0 -218 -55t-187 -143t-130 -201t-49 -229z" />
<glyph unicode="&#x153;" horiz-adv-x="2338" d="M60 422q0 164 72 281t182 195t240 119t248 53q148 8 235 -54t123 -164q96 156 255 251t355 91q28 0 75 -8t100 -25t104 -43t90 -62t59 -81t10 -101q-82 -58 -189 -80t-218 -31t-217 -16t-185 -37t-122 -95t-27 -187q30 -110 99 -162t160 -63t194 10t202 55t185 72l142 62 q26 0 44 -19t18 -45q-46 -78 -134 -142t-201 -106t-238 -60t-242 -5t-217 61t-160 138q-150 -278 -562 -278q-236 0 -358 110t-122 366zM232 362q0 -84 21 -134t62 -75t100 -33t137 -8q112 0 199 11t148 47t97 103t44 177q0 14 1 27t3 27v22v142q0 72 -16 131t-54 96 t-112 37q-98 -16 -196 -37t-184 -76t-152 -162t-98 -295zM1752 1044q-36 0 -88 -8t-100 -28t-83 -52t-35 -82l496 82q-32 48 -83 68t-107 20z" />
<glyph unicode="&#x178;" horiz-adv-x="1368" d="M694 -46q-16 0 -45 10t-56 26t-45 37t-8 45q10 16 26 60t36 105l42 131l43 139l39 131l30 106l-668 682q-19 22 -19 37q0 4 1 7q6 16 24 25t39 11t29 2q34 0 67 -6t71 -25t85 -58t112 -106t152 -165l203 -238q76 222 132 365t101 228t83 121t78 42q24 0 47 -5t33 -37 q-78 -166 -149 -374l-146 -432l-157 -447q-82 -223 -180 -417zM386 1674q0 10 19 25t43 27q26 14 62 30q52 0 71 -22t19 -62q0 -30 -15 -47t-38 -25t-50 -10t-51 -2q-32 0 -46 19t-14 67zM746 1674q0 10 19 25t43 27q28 14 64 30q52 0 71 -22t19 -62q0 -30 -15 -47t-38 -25 t-51 -10t-52 -2q-32 0 -46 19t-14 67z" />
<glyph unicode="&#x2c6;" horiz-adv-x="786" d="M44 1364q0 30 26 76t74 95t115 98t147 85l95 -61q41 -27 77 -60t73 -79t83 -120q16 -30 17 -56t-11 -42t-35 -18t-55 16l-56 40l-32 23q-12 9 -21 19t-26 27l-46 47l-81 82q-54 -38 -93 -70t-67 -63t-47 -62t-33 -67q-46 0 -75 13t-29 77z" />
<glyph unicode="&#x2da;" horiz-adv-x="562" d="M78 1252q0 84 30 133t76 69t100 14t102 -34t82 -73t40 -101q0 -126 -52 -167t-154 -41q-32 0 -71 12t-73 37t-57 63t-23 88zM390 1302q-42 46 -90 56t-82 -9t-42 -62t30 -105q46 -38 89 -42t71 16t37 59t-13 87z" />
<glyph unicode="&#x2dc;" horiz-adv-x="1138" d="M526 1314q-50 44 -88 74t-77 27t-86 -48t-119 -151q-8 0 -22 2t-28 8t-26 16t-16 26q38 120 113 212t159 126q34 14 65 2t62 -37t60 -58t60 -63t64 -50t69 -20q56 0 87 17t57 50t57 81t87 108q16 0 32 -27t16 -47q10 -56 -12 -110t-65 -98t-102 -74t-121 -39t-121 7 t-105 66z" />
<glyph unicode="&#x2000;" horiz-adv-x="1262" />
<glyph unicode="&#x2001;" horiz-adv-x="2526" />
<glyph unicode="&#x2002;" horiz-adv-x="1262" />
<glyph unicode="&#x2003;" horiz-adv-x="2526" />
<glyph unicode="&#x2004;" horiz-adv-x="842" />
<glyph unicode="&#x2005;" horiz-adv-x="630" />
<glyph unicode="&#x2006;" horiz-adv-x="420" />
<glyph unicode="&#x2007;" horiz-adv-x="420" />
<glyph unicode="&#x2008;" horiz-adv-x="314" />
<glyph unicode="&#x2009;" horiz-adv-x="504" />
<glyph unicode="&#x200a;" horiz-adv-x="140" />
<glyph unicode="&#x2010;" horiz-adv-x="794" d="M74 604q0 34 29 47t59 17q114 16 223 35t227 31q50 0 85 -17t46 -40t-3 -48t-60 -39l-480 -50q-16 0 -38 2t-41 9t-33 19t-14 34z" />
<glyph unicode="&#x2011;" horiz-adv-x="794" d="M74 604q0 34 29 47t59 17q114 16 223 35t227 31q50 0 85 -17t46 -40t-3 -48t-60 -39l-480 -50q-16 0 -38 2t-41 9t-33 19t-14 34z" />
<glyph unicode="&#x2012;" horiz-adv-x="794" d="M74 604q0 34 29 47t59 17q114 16 223 35t227 31q50 0 85 -17t46 -40t-3 -48t-60 -39l-480 -50q-16 0 -38 2t-41 9t-33 19t-14 34z" />
<glyph unicode="&#x2013;" horiz-adv-x="794" d="M74 604q0 34 29 47t59 17q114 16 223 35t227 31q50 0 85 -17t46 -40t-3 -48t-60 -39l-480 -50q-16 0 -38 2t-41 9t-33 19t-14 34z" />
<glyph unicode="&#x2014;" horiz-adv-x="1052" d="M74 604q0 34 29 47t59 17q56 8 146 16l186 17l187 17q91 8 149 14q50 0 84 -17t46 -40t-2 -48t-60 -39l-698 -48q-16 0 -38 2t-41 9t-33 19t-14 34z" />
<glyph unicode="&#x2018;" horiz-adv-x="414" d="M208 1536q54 18 80 4t31 -51t-6 -88t-31 -106t-45 -106t-49 -85l-120 -8z" />
<glyph unicode="&#x2019;" horiz-adv-x="414" d="M208 1536q54 18 80 4t31 -51t-6 -88t-31 -106t-45 -106t-49 -85l-120 -8z" />
<glyph unicode="&#x201a;" horiz-adv-x="414" d="M228 466q54 18 80 4t31 -51t-6 -88t-31 -106t-45 -106t-49 -85l-120 -8z" />
<glyph unicode="&#x201c;" horiz-adv-x="606" d="M368 1554q0 32 -2 83t4 105t25 100t59 66l44 -40v-498l40 -84q-4 -4 -15 -11t-24 -13t-26 -11t-19 -5q-26 0 -43 22t-26 56t-13 73t-5 73t0 58t1 26zM138 1536q0 32 -2 83t4 105t24 100t60 66l42 -40v-498l42 -84q-4 -4 -16 -11l-25 -14q-13 -7 -25 -12t-18 -5 q-28 0 -44 22t-26 56t-14 73t-4 74t1 59t1 26z" />
<glyph unicode="&#x201d;" horiz-adv-x="606" d="M368 1554q0 32 -2 83t4 105t25 100t59 66l44 -40v-498l40 -84q-4 -4 -15 -11t-24 -13t-26 -11t-19 -5q-26 0 -43 22t-26 56t-13 73t-5 73t0 58t1 26zM138 1536q0 32 -2 83t4 105t24 100t60 66l42 -40v-498l42 -84q-4 -4 -16 -11l-25 -14q-13 -7 -25 -12t-18 -5 q-28 0 -44 22t-26 56t-14 73t-4 74t1 59t1 26z" />
<glyph unicode="&#x201e;" horiz-adv-x="718" d="M466 388q0 32 -2 83t4 104t25 99t59 68l44 -42v-498l40 -84q-4 -4 -15 -11t-24 -13t-26 -11t-19 -5q-26 0 -43 22t-26 56t-13 73t-5 73t0 58t1 28zM216 398q0 32 -2 83t4 104t24 99t60 68l42 -42v-498l42 -82q-4 -6 -16 -13t-25 -13t-25 -11t-18 -5q-26 0 -43 22t-27 56 t-14 73t-4 74t1 59t1 26z" />
<glyph unicode="&#x2022;" horiz-adv-x="492" d="M82 642q20 94 71 129t107 28t101 -51t51 -110q0 -46 -9 -76t-28 -47t-48 -23t-67 -6q-24 0 -54 10t-58 30t-47 49t-19 67z" />
<glyph unicode="&#x2026;" horiz-adv-x="1082" d="M56 84q0 10 19 25t43 27q26 14 62 30q52 0 71 -22t19 -62q0 -30 -15 -47t-38 -25t-51 -10t-52 -2q-30 0 -44 19t-14 67zM416 84q0 10 19 25t43 27q26 14 62 30q52 0 71 -22t19 -62q0 -30 -15 -47t-38 -25t-50 -10t-51 -2q-32 0 -46 19t-14 67zM776 84q0 10 19 25t43 27 q28 14 64 30q52 0 71 -22t19 -62q0 -30 -15 -47t-38 -25t-51 -10t-52 -2q-32 0 -46 19t-14 67z" />
<glyph unicode="&#x202f;" horiz-adv-x="504" />
<glyph unicode="&#x2039;" horiz-adv-x="1218" d="M210 572l187 148l218 172l213 161q102 75 174 115q18 -2 30 -18t19 -38t6 -45t-9 -37l-588 -448l107 -51l155 -75l179 -92q93 -50 177 -106q-4 -4 -11 -21t-16 -36l-17 -36q-8 -17 -12 -17q-48 30 -119 58l-153 58l-167 63q-85 33 -159 70t-131 80t-83 95z" />
<glyph unicode="&#x203a;" horiz-adv-x="1208" d="M294 120q-84 32 -110 67t-11 71t63 74t112 78l136 81q72 41 135 82t109 84t58 85l-662 248l126 122q82 -58 155 -92t140 -54t131 -33t128 -30t128 -46t134 -79q-64 -78 -163 -157l-208 -161l-215 -167q-106 -85 -186 -173z" />
<glyph unicode="&#x205f;" horiz-adv-x="630" />
<glyph unicode="&#x20ac;" horiz-adv-x="2036" d="M88 524q0 10 16 26t26 16q42 6 78 13t70 11v34q0 38 3 76t7 76l-92 -12q-12 0 -31 -1t-39 2t-35 12t-19 31l50 90q4 4 59 10t139 16q44 156 132 290t207 234t266 157t313 57q82 0 137 -9t89 -38t49 -83t15 -144q-172 96 -338 96t-304 -69t-237 -193t-137 -276 q96 10 193 22t175 24q40 12 61 0t25 -36t-7 -51t-35 -43l-440 -60q-4 -34 -4 -69t4 -69v-26q0 -12 2 -24l106 12q52 6 109 14t123 19t150 29q58 0 75 -37t7 -89q-86 0 -158 -9t-137 -21t-125 -26t-122 -26q58 -162 204 -240t336 -78q148 12 253 23t191 31t164 56t172 96 q18 0 37 -2t35 -8t26 -19t10 -37q-198 -176 -440 -245t-538 -59q-110 0 -215 31t-193 90t-154 142t-98 185q-36 -4 -74 -6t-82 -2q-30 0 -45 18t-15 68z" />
<glyph unicode="&#x2122;" horiz-adv-x="3098" d="M2848 -50q-4 36 -13 111l-21 169l-25 198q-13 104 -26 198l-23 169q-10 75 -14 111q0 52 -3 94t-20 51t-53 -25t-101 -134t-164 -278l-241 -456q-14 -28 -39 -37t-54 8t-60 64t-55 131l-438 928l-21 -4l-21 -4q-14 -48 -25 -118t-21 -150t-18 -166l-15 -168 q-7 -82 -12 -154t-9 -122q-12 -64 -10 -125t5 -114t3 -97t-15 -73t-50 -43t-101 -8q-42 0 -64 21t-18 65l20 165l26 215l30 240l30 239l27 213q13 98 21 164q-52 0 -104 2t-107 2t-116 -3t-133 -13q-4 -66 -13 -158t-18 -199l-19 -223q-10 -116 -16 -227t-8 -212t6 -179 l-234 -18l78 1234l-534 32q-10 0 -18 9t-13 23t-8 28t-3 24q0 34 22 67t54 33q150 -6 302 -19t303 -22t303 -12t302 9q16 68 52 97t126 29q86 0 156 -62t128 -158t106 -213l90 -228l80 -203q38 -92 76 -136l500 870q68 62 120 54t91 -68t68 -162t50 -228t37 -266t30 -276 t29 -256t35 -208q14 -84 -13 -123t-67 -39t-80 32t-52 88z" />
<glyph unicode="&#x2212;" horiz-adv-x="794" d="M74 604q0 34 29 47t59 17q114 16 223 35t227 31q50 0 85 -17t46 -40t-3 -48t-60 -39l-480 -50q-16 0 -38 2t-41 9t-33 19t-14 34z" />
<glyph unicode="&#xe000;" horiz-adv-x="1200" d="M0 1200h1200v-1200h-1200v1200z" />
<glyph unicode="&#xfb01;" horiz-adv-x="1752" d="M130 414q-16 0 -33 15t-31 38t-23 51t-9 52l380 136q-34 286 -44 500q-5 107 -5 198.5t5 167.5q10 152 40 250t78 155t114 78t146 21q74 0 175 -42t194 -108t158 -147t65 -159q0 -6 -1 -18t-3 -25l-4 -25q-2 -12 -4 -16q-44 58 -106 125t-136 123t-156 93t-164 37 q-84 0 -128 -59t-63 -143t-21 -173t-2 -149q0 -166 10 -324t60 -318q108 0 215 13t216 28l221 29q112 14 228 16q6 0 9 -15t3 -39t1 -52t5 -54l-858 -104l46 -554l-204 8q0 132 -13 259t-35 257zM1596 1100q18 -246 32 -523t24 -559q-10 -40 -41 -58t-67 -19h-6 q-33 0 -61 11q-31 12 -39 32v1116h158zM1364 1440q0 46 26 66t62 23q8 1 17 1l55 -8q36 -10 52 -24q8 -28 8 -50q0 -29 -14 -46q-24 -30 -63 -33h-10q-34 0 -71 17q-42 20 -62 54z" />
<glyph unicode="&#xfb02;" horiz-adv-x="1794" d="M130 414q-16 0 -33 15t-31 38t-23 51t-9 52l380 136q-34 286 -44 500q-5 107 -5 198.5t5 167.5q10 152 40 250t78 155t114 78t146 21q74 0 175 -42t194 -108t158 -147t65 -159q0 -6 -1 -18t-3 -25l-4 -25q-2 -12 -4 -16q-44 58 -106 125t-136 123t-156 93t-164 37 q-84 0 -128 -59t-63 -143t-21 -173t-2 -149q0 -166 10 -324t60 -318q108 0 215 13t216 28l221 29q112 14 228 16q6 0 9 -15t3 -39t1 -52t5 -54l-858 -104l46 -554l-204 8q0 132 -13 259t-35 257zM1412 1656l43 57q21 27 61 27q26 0 48 -62t38 -165t28 -235t20 -274t13 -283 t8 -258t4 -201t1 -114q0 -36 -15 -58t-38 -35t-52 -17t-55 -4q-4 0 -11 1t-9 1q0 52 -3 159l-7 242l-8 284q-4 149 -9 284t-10 242t-7 159q0 14 -5 50l-11 76q-6 40 -13 75t-11 49z" />
<glyph unicode="&#xfb03;" horiz-adv-x="3428" d="M3332 1174q18 -246 32 -523t24 -559q-10 -40 -41 -58t-67 -19h-6q-33 0 -61 11q-31 12 -39 32v1116h158zM3100 1514q0 46 26 66t62 23q8 1 17 1l55 -8q36 -10 52 -24q8 -28 8 -50q0 -29 -14 -46q-24 -30 -63 -33h-10q-34 0 -71 17q-42 20 -62 54zM1650 414q-16 0 -33 15 t-31 38t-23 51t-9 52l380 136q-34 286 -44 500q-5 107 -5 198.5t5 167.5q10 152 40 250t78 155t114 78t146 21q74 0 175 -42t194 -108t158 -147t65 -159q0 -6 -1 -18t-3 -25l-4 -25q-2 -12 -4 -16q-44 58 -106 125t-136 123t-156 93t-164 37q-84 0 -128 -59t-63 -143 t-21 -173t-2 -149q0 -166 10 -324t60 -318q108 0 215 13t216 28l221 29q112 14 228 16q6 0 9 -15t3 -39t1 -52t5 -54l-858 -104l46 -554l-204 8q0 132 -13 259t-35 257zM130 414q-16 0 -33 15t-31 38t-23 51t-9 52l380 136q-34 286 -44 500q-5 107 -5 198.5t5 167.5 q10 152 40 250t78 155t114 78t146 21q74 0 175 -42t194 -108t158 -147t65 -159q0 -6 -1 -18t-3 -25l-4 -25q-2 -12 -4 -16q-44 58 -106 125t-136 123t-156 93t-164 37q-84 0 -128 -59t-63 -143t-21 -173t-2 -149q0 -166 10 -324t60 -318q108 0 215 13t216 28l221 29 q112 14 228 16q6 0 9 -15t3 -39t1 -52t5 -54l-858 -104l46 -554l-204 8q0 132 -13 259t-35 257z" />
<glyph unicode="&#xfb04;" horiz-adv-x="3442" d="M3096 1620l43 57q21 27 61 27q26 0 48 -62t38 -165t28 -235t20 -274t13 -283t8 -258t4 -201t1 -114q0 -36 -15 -58t-38 -35t-52 -17t-55 -4q-4 0 -11 1t-9 1q0 52 -3 159l-7 242l-8 284q-4 149 -9 284t-10 242t-7 159q0 14 -5 50l-11 76q-6 40 -13 75t-11 49zM1650 414 q-16 0 -33 15t-31 38t-23 51t-9 52l380 136q-34 286 -44 500q-5 107 -5 198.5t5 167.5q10 152 40 250t78 155t114 78t146 21q74 0 175 -42t194 -108t158 -147t65 -159q0 -6 -1 -18t-3 -25l-4 -25q-2 -12 -4 -16q-44 58 -106 125t-136 123t-156 93t-164 37q-84 0 -128 -59 t-63 -143t-21 -173t-2 -149q0 -166 10 -324t60 -318q108 0 215 13t216 28l221 29q112 14 228 16q6 0 9 -15t3 -39t1 -52t5 -54l-858 -104l46 -554l-204 8q0 132 -13 259t-35 257zM130 414q-16 0 -33 15t-31 38t-23 51t-9 52l380 136q-34 286 -44 500q-5 107 -5 198.5 t5 167.5q10 152 40 250t78 155t114 78t146 21q74 0 175 -42t194 -108t158 -147t65 -159q0 -6 -1 -18t-3 -25l-4 -25q-2 -12 -4 -16q-44 58 -106 125t-136 123t-156 93t-164 37q-84 0 -128 -59t-63 -143t-21 -173t-2 -149q0 -166 10 -324t60 -318q108 0 215 13t216 28l221 29 q112 14 228 16q6 0 9 -15t3 -39t1 -52t5 -54l-858 -104l46 -554l-204 8q0 132 -13 259t-35 257z" />
</font>
</defs>
</svg>
